<?xml version="1.0" standalone="no"?>
<!DOCTYPE svg PUBLIC "-//W3C//DTD SVG 1.1//EN" "http://www.w3.org/Graphics/SVG/1.1/DTD/svg11.dtd" >
<svg xmlns="http://www.w3.org/2000/svg" xmlns:xlink="http://www.w3.org/1999/xlink" version="1.1">
<metadata>
Created by FontForge 20150318 at Mon Oct 26 16:42:20 2015
 By uniteet7
Copyright \251 2002, \\ Typoasis/CybaPee with MKs assistance. All rights reserved.
</metadata>
<defs>
<font id="ArabDances" horiz-adv-x="684" >
  <font-face 
    font-family="ArabDances"
    font-weight="500"
    font-stretch="normal"
    units-per-em="1000"
    panose-1="2 0 6 6 2 0 0 2 0 3"
    ascent="800"
    descent="-200"
    x-height="319"
    cap-height="698"
    bbox="-37 -310.6 946 806"
    underline-thickness="50"
    underline-position="-75"
    unicode-range="U+0019-E003"
  />
<missing-glyph horiz-adv-x="1000" 
 />
    <glyph glyph-name=".notdef" horiz-adv-x="1000" 
 />
    <glyph glyph-name=".null" horiz-adv-x="0" 
 />
    <glyph glyph-name="nonmarkingreturn" unicode="&#xe001;" horiz-adv-x="256" 
 />
    <glyph glyph-name="fraction" horiz-adv-x="291" 
d="M241 300q-3 -28 -7.5 -55t-5.5 -55q-17 24 -38 44q-19 0 -28 -17q-5 -9 -6 -31.5t-0.5 -48.5t1 -51.5t-0.5 -38.5q4 0 7.5 -2t6.5 -4l2 -3q17 -3 30 -2q-32 -20 -62.5 -41t-63.5 -38q6 64 6 127v127q0 11 -11.5 15.5t-20.5 3.5q2 26 6 50.5t8 49.5q19 4 38 -3.5t28 -24.5
q26 32 57 32.5t54 -34.5z" />
    <glyph glyph-name="fi" horiz-adv-x="742" 
d="M692 496q0 -66 -21.5 -117t-59.5 -87t-90.5 -56t-115.5 -23q-18 -1 -33 1t-32 12q-29 17 -46 45.5t-23 61.5q-3 16 -3 32q0 17 5 33q6 -17 16.5 -32.5t24.5 -28.5q21 -20 53 -26.5t68 -1t72 21.5t64.5 40t46.5 56t18 69h56zM147 -4q-23 0 -44.5 3t-43.5 5q11 52 14.5 106
t3.5 108t-2 108.5t-1 107.5q1 26 2.5 51.5t6.5 51.5q2 10 4 19.5t3 19.5q1 9 -3 15.5t-10 11t-13 8t-14 5.5q79 48 162 93q-13 -42 -22 -85t-16 -87q-6 -45 -7 -90.5t0.5 -91t2.5 -91.5t-2 -92q-6 -89 -21 -176z" />
    <glyph glyph-name="fl" horiz-adv-x="656" 
d="M606 556q-14 14 -30 26t-36 14q-28 3 -56 3.5t-56 1.5l-56 2t-56 -1q-18 -1 -29 -14q-5 -5 -10 -13.5t-7 -15.5q-3 -14 -4 -32.5t-1 -38.5t0.5 -39t0.5 -34q1 -53 3 -107.5t1.5 -108.5t-6 -107.5t-17.5 -105.5q-14 21 -29 40.5t-31 39.5q6 44 11.5 99t5.5 112t-8 111
t-27 96q-28 63 -74 116q-12 14 -24 27.5t-21 30.5q11 7 38 7t57.5 -4t60 -10t45.5 -10q-2 -6 -4.5 -11.5t-4.5 -11.5q16 33 40 50t53 24.5t60 7.5q32 0 63 -2q13 -1 27.5 -0.5t29 -1t28 -6.5t23.5 -16q21 -23 28 -55.5t12 -62.5z" />
    <glyph glyph-name="space" unicode=" " horiz-adv-x="256" 
 />
    <glyph glyph-name="exclam" unicode="!" horiz-adv-x="368" 
d="M72 86h63q2 112 -2 223.5t-6 224.5h-62q1 -113 4 -224.5t3 -223.5zM83 -5q19 -4 32.5 5.5t20 23t4 26t-15.5 15.5q-15 3 -29 -3t-21.5 -17.5t-6.5 -25t16 -24.5z" />
    <glyph glyph-name="quotedbl" unicode="&#x22;" horiz-adv-x="334" 
d="M284 640q-8 -29 -14.5 -57.5t-13.5 -57t-16.5 -56t-24.5 -53.5q4 29 1 57.5t-9 57t-13 56.5t-10 57q14 13 27 24.5t27 24.5q11 -14 22.5 -27t23.5 -26zM150 644q-9 -28 -15.5 -57t-13 -57.5t-14.5 -57t-19 -55.5q0 28 -5 56t-12 56t-13 55.5t-8 55.5q14 14 29 27t31 26
q20 -26 40 -49z" />
    <glyph glyph-name="numbersign" unicode="#" 
d="M626 -14q-35 -24 -76 -34.5t-83 -8.5q-64 5 -120.5 35.5t-96.5 80.5q-14 17 -22.5 35t-18.5 38q-20 45 -30 92.5t-2 97.5q6 40 26.5 77.5t50 69.5t64 58t69.5 43q-26 -14 -44.5 -37t-29.5 -51q-18 -46 -15.5 -94.5t17.5 -96t38.5 -92.5t47.5 -84q7 -12 17.5 -28.5t22 -33
t23 -31.5t22.5 -24q30 -24 68.5 -29.5t71.5 17.5zM457 372q19 -8 36 -17.5t36 -17.5q17 11 35 20t35 20q-4 -20 -6.5 -39t-6.5 -39q16 -13 32 -25.5t33 -23.5q-20 -4 -40 -7t-40 -7q-8 -20 -15 -38.5t-16 -37.5q-7 20 -17 37t-19 35q-20 2 -41 2.5t-41 1.5q13 15 27 29
t27 29q-5 20 -9.5 39t-9.5 39z" />
    <glyph glyph-name="dollar" unicode="$" horiz-adv-x="420" 
d="M370 415q-3 -2 -5.5 -4.5t-5.5 -4.5q-12 21 -22 45.5t-22 47t-29.5 39.5t-45.5 22q11 -45 24.5 -89.5t27.5 -89.5t26.5 -89.5t26.5 -89.5q6 -20 9 -36t0 -37q-6 -50 -36.5 -85.5t-69.5 -50t-79.5 -5.5t-67.5 48q-11 16 -17.5 35.5t-11 40.5t-9.5 42t-13 39h4
q14 -23 29 -35.5t32.5 -18.5t37 -7.5t42.5 -3.5q21 -2 36.5 4t13.5 32q0 8 -3 16q-13 38 -26.5 76t-28.5 76q-12 31 -25.5 66.5t-24 72.5t-16.5 74t-1 70q4 34 26 55t51 28.5t61 1.5t57 -27q16 -13 27 -34q7 -13 11.5 -43t7.5 -64t5 -66.5t4 -50.5zM212 796q32 0 64 -3
q-1 -17 -2 -33.5t-3 -33.5q-16 2 -32 2h-32q2 17 3.5 34t1.5 34zM188 -37h32t32 1q1 -17 -1.5 -34t-4.5 -34q-16 -2 -31.5 -1t-31.5 0q1 17 3 34t2 34z" />
    <glyph glyph-name="percent" unicode="%" horiz-adv-x="482" 
d="M432 469q-10 0 -19 -0.5t-19 -1.5q-15 -11 -31 -22.5t-33 -20.5q-22 -12 -42 -11t-38 6.5t-34.5 13t-32 9t-30 -6t-28.5 -30.5q-5 -8 -7 -19t0 -21q2 -8 4 -16.5t10 -13.5q10 -6 24.5 -3t27 13.5t20 27t4.5 36.5q24 -17 46.5 -20.5t43.5 2.5t41.5 19.5t40.5 28.5
q-45 -52 -85 -107.5t-79.5 -112t-80 -112t-85.5 -106.5q16 -2 31 -3t31 -3q45 56 84 116t76.5 120.5t76.5 121t83 116.5zM184 416q4 -12 1.5 -27t-9 -25.5t-16 -13t-18.5 9.5q-1 5 -2 14.5t0 14.5q1 2 3 8.5t2 7.5l6 9l-1 1q9 9 20 11l7 -2zM329 18q8 1 13 0t13 4
q8 4 17.5 12t14.5 16q16 27 12 48t-18 30t-32.5 4t-31.5 -29q-10 -19 -11 -36t5 -38q5 -5 9 -7t9 -4zM377 79q3 -11 -9.5 -24t-21.5 -17l-8 4l-6 8q-1 7 0 14t0 14q2 6 4.5 12.5t4.5 12.5q8 10 20 13q11 -3 15 -14.5t1 -22.5z" />
    <glyph glyph-name="ampersand" unicode="&#x26;" 
d="M626 -14q-35 -24 -76 -34.5t-83 -8.5q-64 5 -120.5 35.5t-96.5 80.5q-14 17 -22.5 35t-18.5 38q-20 45 -30 92.5t-2 97.5q6 40 26.5 77.5t50 69.5t64 58t69.5 43q-26 -14 -44.5 -37t-29.5 -51q-18 -46 -15.5 -94.5t17.5 -96t38.5 -92.5t47.5 -84q7 -12 17.5 -28.5t22 -33
t23 -31.5t22.5 -24q30 -24 68.5 -29.5t71.5 17.5zM457 372q19 -8 36 -17.5t36 -17.5q17 11 35 20t35 20q-4 -20 -6.5 -39t-6.5 -39q16 -13 32 -25.5t33 -23.5q-20 -4 -40 -7t-40 -7q-8 -20 -15 -38.5t-16 -37.5q-7 20 -17 37t-19 35q-20 2 -41 2.5t-41 1.5q13 15 27 29
t27 29q-5 20 -9.5 39t-9.5 39z" />
    <glyph glyph-name="quotesingle" unicode="'" horiz-adv-x="200" 
d="M150 651q-13 -57 -25.5 -113.5t-31.5 -111.5q-6 57 -20.5 112.5t-22.5 112.5q12 15 26 28t28 27q11 -14 23 -27.5t23 -27.5z" />
    <glyph glyph-name="parenleft" unicode="(" horiz-adv-x="275" 
d="M207 -31q-16 8 -26.5 21t-22.5 25q-10 24 -19.5 47.5t-14.5 49.5q-8 46 -8.5 91.5t-2.5 93.5q-1 12 1 23t3 23q1 10 1 18t3 18q15 45 37 83.5t67 59.5q-60 -7 -98 -47.5t-57 -98t-18.5 -123.5t18 -125.5t52.5 -103t85 -55.5z" />
    <glyph glyph-name="parenright" unicode=")" horiz-adv-x="274" 
d="M50 -26q54 4 91.5 42.5t58 95.5t23.5 123.5t-13 127t-51.5 105.5t-90.5 59q24 -19 38.5 -36t26.5 -46q20 -45 23 -95.5t4 -99.5q1 -32 1 -63q0 -30 -4.5 -59t-16 -57t-32.5 -54q-11 -14 -26 -25.5t-32 -17.5z" />
    <glyph glyph-name="asterisk" unicode="*" horiz-adv-x="358" 
d="M308 524q-30 9 -59.5 18.5t-59.5 19.5l115 43q-5 11 -11.5 20t-10.5 20q-26 -17 -51.5 -34t-48.5 -37q5 32 12.5 63t19.5 60q-11 2 -22.5 1t-22.5 0q-3 -31 -4 -62t4 -63q-25 16 -45.5 36.5t-43.5 37.5l-30 -42l115 -44q-26 -11 -52 -23t-52 -23q6 -11 11 -21t11 -21
q23 19 45.5 38t43.5 39q-2 -34 -11 -67t-20 -65h44q5 33 4.5 66.5t-5.5 66.5q50 -36 91 -77q8 13 16.5 25t16.5 25z" />
    <glyph glyph-name="plus" unicode="+" horiz-adv-x="330" 
d="M280 270q-23 -6 -47 -9t-47 -8q4 28 12.5 54.5t15.5 53.5q-9 -2 -18 -1.5t-18 -2.5q-17 -54 -21 -109l-87 -16q-4 -10 -9.5 -18.5t-10.5 -17.5q26 2 52.5 7t52.5 7q-3 -29 -9 -56.5t-17 -53.5q6 3 12 4.5t12 4.5q9 26 16.5 52t12.5 52l85 12q2 11 6.5 22.5t6.5 22.5z" />
    <glyph glyph-name="comma" unicode="," horiz-adv-x="251" 
d="M201 50q-40 -55 -74.5 -112t-76.5 -111q17 56 25.5 112.5t24.5 113.5q13 14 27 26t28 25q12 -13 22 -27.5t24 -26.5z" />
    <glyph glyph-name="hyphen" unicode="-" horiz-adv-x="340" 
d="M330 340q-11 -24 -19.5 -49.5t-28.5 -44.5q-16 -15 -45 -17t-62 -1.5t-66.5 -1.5t-58.5 -18q5 18 9 36t12 35q6 15 19.5 31.5t30.5 18.5q13 2 32.5 2.5t39.5 0t39.5 -1.5t34.5 -1q17 0 32 3t31 8z" />
    <glyph glyph-name="period" unicode="." horiz-adv-x="203" 
d="M153 40q-14 -14 -27.5 -27t-29.5 -24q-10 14 -22 26.5t-24 24.5q14 14 27.5 26.5t28.5 24.5q11 -14 23 -26t24 -25z" />
    <glyph glyph-name="slash" unicode="/" horiz-adv-x="368" 
d="M109 -96q-31 3 -59 12q14 -5 29 -8t30 -4zM318 688q-15 4 -30 6.5t-30 5.5q-30 -97 -55 -195t-49 -196.5t-49 -197t-55 -195.5q14 -5 29 -8t30 -4q32 96 57.5 194.5t49 197t48 197t54.5 195.5z" />
    <glyph glyph-name="zero" unicode="0" horiz-adv-x="393" 
d="M336 129q-13 -52 -45 -91t-71 -53.5t-78 1.5t-65 75q-15 35 -19 69.5t-6 72.5q-2 19 -1 37.5t6 37.5q10 46 32.5 79t51.5 50.5t60.5 19t59.5 -14.5t48.5 -50t27.5 -88q5 -32 6 -72.5t-7 -72.5zM190 29q24 3 36 24.5t17.5 49t5.5 55.5v46q0 14 -0.5 36t-2.5 44.5t-6 43
t-11 31.5q-5 7 -11 11t-14 7q-32 -14 -44.5 -40.5t-15.5 -58.5t0 -65t2 -60q0 -13 0.5 -32.5t5 -38.5t13.5 -34t25 -19z" />
    <glyph glyph-name="one" unicode="1" horiz-adv-x="321" 
d="M168 -13q7 42 9.5 83.5t3 83.5t0 83.5t1.5 83.5q-29 -15 -53 -36.5t-48 -43.5l-31 20q31 28 62 59q15 15 31.5 29t31.5 29q10 10 16.5 23l12.5 25q17 -2 33.5 -3t33.5 -5q-4 -53 -4 -107v-107q0 -53 -3 -106.5t-14 -105.5q-20 -3 -41 -4t-41 -1z" />
    <glyph glyph-name="two" unicode="2" horiz-adv-x="368" 
d="M140 216q-9 6 -22 16t-25 21t-21 24t-10 25q-1 9 4.5 25t10.5 24q19 35 49.5 55t64 22t64.5 -15t50 -56q13 -28 13 -53t-9 -47.5t-25.5 -43t-35.5 -40.5q-3 -4 -19.5 -21.5t-35 -37t-33.5 -35l-15 -15.5q41 0 81 0.5t81 4.5q-6 -38 -15 -76q-60 -6 -121 -6t-121 9
q1 11 1 21t2 21q24 35 50 64q18 21 46 51.5t50.5 64.5t31.5 69.5t-11 65.5q-12 19 -30 21t-35 -7t-29 -26.5t-11 -36.5q1 -21 9 -44.5t16 -43.5z" />
    <glyph glyph-name="three" unicode="3" horiz-adv-x="377" 
d="M245 214q16 -2 28 -6t23 -15q22 -21 28.5 -45t0 -47t-22.5 -44.5t-38 -38t-47.5 -26.5t-49.5 -10q-26 -1 -48.5 10.5t-38.5 30t-23.5 40t-4 42t20 37t48.5 22.5q-20 -35 -19 -61t14 -41.5t34.5 -21t41.5 0.5t35 23.5t16 47.5q1 22 -9.5 36.5t-29.5 24.5q-17 9 -37 12.5
t-39 2.5l-2 24t0 24q32 -2 54 8t34.5 25.5t15.5 34t-2 35t-18 27t-33 10.5q-22 0 -41 -11q-12 -8 -16.5 -20t-5.5 -26t0.5 -28.5t3.5 -26.5q-20 13 -35 27q-15 12 -16.5 28t4.5 31.5t17.5 29.5t23.5 23q19 14 39.5 19.5t43.5 6.5q30 1 54 -11t39 -32t21.5 -45t2 -49.5
t-21 -45t-45.5 -32.5z" />
    <glyph glyph-name="four" unicode="4" horiz-adv-x="383" 
d="M281 84q-2 -24 -7 -48t-10 -47l-38 -2t-38 0q3 23 7 46.5t6 47.5q-38 -1 -75 0.5t-75 4.5q0 12 -0.5 23.5t1.5 23.5q43 75 86.5 148.5t94.5 142.5q14 1 29 -1t29 -3q-9 -71 -8 -141.5t1 -141.5q12 1 24 1t24 1q1 -14 -1 -26.5t-4 -26.5q-11 -1 -23 -1.5t-23 -0.5z
M201 286q-22 -38 -42.5 -75t-42.5 -75q22 -1 43 -1h44q0 38 -1.5 75.5t-0.5 75.5z" />
    <glyph glyph-name="five" unicode="5" horiz-adv-x="391" 
d="M120 263q19 11 37 14t39 3q55 0 91.5 -28t47.5 -70t-8 -90t-74 -86q-35 -24 -66 -28.5t-57 4.5t-44.5 27.5t-27.5 39.5t-7.5 42.5t16.5 35.5q7 6 13.5 12t14.5 12q4 -25 5.5 -52t19.5 -47q20 -23 43.5 -22t44 16.5t34.5 40t15 47.5q1 30 -15.5 53.5t-41 32.5t-52 0.5
t-46.5 -42.5q-11 5 -21.5 10t-21.5 9q6 58 20 114t35 110q54 5 106.5 3t106.5 -8q-5 -17 -10.5 -34t-7.5 -35q-43 2 -85 3t-85 -1q-8 -21 -11.5 -42.5t-7.5 -43.5z" />
    <glyph glyph-name="six" unicode="6" horiz-adv-x="375" 
d="M136 260q15 10 33 15q34 8 62 0.5t48 -26t31 -45t12 -56.5t-10 -60.5t-35 -57.5q-20 -23 -47.5 -37.5t-58.5 -13.5q-39 1 -62 23.5t-36 54.5t-17 68.5t-4 65.5q0 20 0.5 39.5t5.5 40.5q9 39 29.5 74.5t54.5 60.5q41 29 76 24t56.5 -26.5t25.5 -49t-18 -43.5l-25 -18
q-5 23 -6 44q-1 8 -5 15.5t-9 12.5q-13 13 -28 14q-16 2 -27 -6t-18.5 -21t-12.5 -27.5t-9 -26.5q-6 -18 -6 -38zM180 28q30 9 45.5 40.5t16 66.5t-15 62.5t-48.5 27.5q-7 -5 -14 -9.5t-11 -12.5q-9 -16 -13 -42t-1.5 -52.5t12.5 -49t29 -31.5z" />
    <glyph glyph-name="seven" unicode="7" horiz-adv-x="377" 
d="M323 359q-58 -85 -89.5 -179.5t-55.5 -192.5q-22 0 -43 1t-43 3q17 45 33 91.5t34 91.5t40 88.5t51 83.5q-51 0 -100 0.5t-100 -4.5q8 20 16.5 40t16.5 40q124 12 243 -4q1 -15 -1 -29.5t-2 -29.5z" />
    <glyph glyph-name="eight" unicode="8" horiz-adv-x="377" 
d="M247 226q39 -21 57 -47t19.5 -53.5t-10.5 -53t-33.5 -46t-49.5 -32.5t-57 -12q-44 0 -74.5 25t-41 60.5t1 74t51.5 65.5q-40 26 -46 64t11.5 73t51.5 60t75 25q42 0 67 -24t32 -57t-6.5 -67.5t-47.5 -54.5zM191 250q9 6 18.5 11.5t18.5 12.5q22 15 25 36.5t-7.5 39
t-31 26.5t-44.5 1q-26 -9 -36 -27.5t-6 -38.5t20.5 -37.5t42.5 -23.5zM160 179q-38 -21 -50 -47t-5.5 -49t27.5 -38t48 -15q30 0 49.5 16t24 37.5t-7.5 43.5t-45 35q-11 4 -20.5 8t-20.5 9z" />
    <glyph glyph-name="nine" unicode="9" horiz-adv-x="375" 
d="M236 156q-30 -21 -58 -24.5t-51.5 6.5t-40.5 30.5t-26 47t-8.5 56.5t13.5 59q12 27 32 50t48 37t62 12.5t58 -23.5q19 -18 30.5 -40t17.5 -46t8 -49.5t2 -50.5v-40t-5 -40q-6 -29 -20 -57.5t-34 -52t-46.5 -38t-59.5 -14.5q-26 0 -49 15.5t-35 38t-7.5 46.5t34.5 40
q7 -14 9.5 -28.5t7.5 -27t15 -21.5t32 -11q19 7 31 21t19.5 31.5t12 36.5t8.5 36zM183 188q19 3 31 17.5t17.5 35t5 44t-5.5 44t-14 35.5t-21 19q-25 -9 -41.5 -38t-20 -61t7.5 -60.5t41 -35.5z" />
    <glyph glyph-name="colon" unicode=":" horiz-adv-x="201" 
d="M151 340q-14 -10 -25.5 -21.5t-23.5 -22.5q-12 12 -24.5 23.5t-25.5 22.5q14 14 27 27.5t27 27.5q13 -13 23 -28t22 -29zM149 39q-14 -14 -27 -28.5t-27 -28.5q-12 14 -23 28.5t-22 29.5q13 11 25 21.5t24 22.5q13 -11 24.5 -23t25.5 -22z" />
    <glyph glyph-name="semicolon" unicode=";" horiz-adv-x="252" 
d="M202 339q-14 -10 -25.5 -20.5t-24.5 -21.5q-11 14 -23.5 26.5l-25.5 25.5q14 12 26.5 25t26.5 25q13 -14 24 -29t22 -31zM202 40q-35 -58 -72 -114t-80 -109q13 55 25 109.5t23 110.5q14 13 27 25.5t26 25.5q13 -12 25 -24.5t26 -23.5z" />
    <glyph glyph-name="less" unicode="&#x3c;" horiz-adv-x="398" 
d="M253 79q3 21 3 40q-21 27 -45 50.5t-48 46.5q24 29 51 55.5t55 52.5q2 7 5.5 12.5t5.5 11.5q-46 -34 -92 -67.5t-88 -73.5q39 -31 78.5 -61.5t74.5 -66.5z" />
    <glyph glyph-name="equal" unicode="=" 
d="M576 46q-35 -24 -76 -34.5t-83 -8.5q-64 5 -120.5 35.5t-96.5 80.5q-14 17 -22.5 35t-18.5 38q-20 45 -30 92.5t-2 97.5q6 40 26.5 77.5t50 69.5t64 58t69.5 43q-26 -14 -44.5 -37t-29.5 -51q-18 -46 -15.5 -94.5t17.5 -96t38.5 -92.5t47.5 -84q7 -12 17.5 -28.5t22 -33
t23 -31.5t22.5 -24q30 -24 68.5 -29.5t71.5 17.5zM407 432q19 -8 36 -17.5t36 -17.5q17 11 35 20t35 20q-4 -20 -6.5 -39t-6.5 -39q16 -13 32 -25.5t33 -23.5q-20 -4 -40 -7t-40 -7q-8 -20 -15 -38.5t-16 -37.5q-7 20 -17 37t-19 35q-20 2 -41 2.5t-41 1.5q13 15 27 29
t27 29q-5 20 -9.5 39t-9.5 39z" />
    <glyph glyph-name="greater" unicode="&#x3e;" horiz-adv-x="314" 
d="M300 253q-42 33 -81.5 67.5t-74.5 73.5q1 -6 -0.5 -12.5t0.5 -11.5q4 -9 16 -24t26 -31t27.5 -30.5t21.5 -22.5q-24 -26 -50 -50t-53 -47q-4 -10 -8 -19.5t-7 -20.5q46 32 92.5 62.5t90.5 65.5z" />
    <glyph glyph-name="question" unicode="?" horiz-adv-x="382" 
d="M50 408q37 65 79 91.5t80.5 25.5t69 -24t44.5 -56t7 -70.5t-44 -68.5q-24 -20 -50 -32t-53 -27q0 -38 -0.5 -76.5t-2.5 -76.5q-12 0 -24 -2.5t-21 -11.5q5 43 4.5 86t-1.5 86q12 15 30 27.5t36.5 26t34 29t23.5 37.5q13 38 3 63t-33.5 37t-54.5 10t-59 -18
q-20 -11 -36 -25.5t-32 -30.5zM140 -13q-15 11 -16 24.5t6.5 25t21.5 17.5t29 3q13 -3 15.5 -15.5t-4 -26t-20 -23t-32.5 -5.5z" />
    <glyph glyph-name="at" unicode="@" horiz-adv-x="787" 
d="M394 174q-38 -10 -70.5 -33t-46.5 -61l5 -8q2 0 5.5 -1t5.5 -1q18 6 32.5 17.5t26.5 25.5t22 30t20 31zM670 69q8 20 20.5 44t12.5 45q0 22 -9.5 46t-23.5 41q-21 25 -51 44.5t-63.5 32.5t-69 19t-68.5 5q-39 -2 -78 -8t-77 -16q-35 -8 -74.5 -24.5t-67.5 -39.5
q-10 -8 -17 -20.5t-11.5 -27.5t-6.5 -29.5t-2 -26.5q1 -26 8.5 -64t21 -76t32.5 -70.5t42 -46.5q13 -8 40 -11t57 -3t58.5 2.5t44.5 5.5q13 2 27 5.5t27 4.5t13 -10t-6 -19q-4 -5 -21.5 -8.5t-37.5 -6.5t-37.5 -5t-21.5 -2q-14 -2 -36.5 -2.5t-46.5 1t-45.5 5.5t-33.5 12
q-28 17 -49 52.5t-35.5 77.5t-22.5 84.5t-11 73.5q-2 16 2 35t10 34q16 42 60 71.5t98 47.5t110 27t96 11q48 2 102 -12t99.5 -42.5t76 -71t32.5 -96.5q0 -11 -4 -27.5t-11 -33t-16 -31.5t-17 -22q-7 -19 -23 -36q-8 -8 -19.5 -11.5t-24 -4.5t-25.5 -0.5t-24 0.5
q-22 -1 -43.5 -2t-41 2t-37.5 12.5t-33 30.5q-10 15 -15 35h-2q-23 -35 -58.5 -56t-77.5 -23q-26 -1 -39 14.5t-14.5 40t7.5 54t29 57t49.5 49.5t67.5 30q11 -11 20.5 -21.5t20.5 -20.5q14 11 29 20t29 20h2q-2 -23 -6 -52t-0.5 -55t18.5 -44t50 -18h63q19 0 40 -0.5t39 4.5
z" />
    <glyph glyph-name="A" unicode="A" horiz-adv-x="545" 
d="M479 -1q-27 -5 -54 -7.5t-54 -3.5q4 55 7 109.5t-2 109.5q-17 -14 -34.5 -25t-34.5 -25q-14 11 -22.5 24t-22.5 23q-19 -50 -42 -95q-11 -23 -21.5 -47t-23.5 -46q-6 -10 -18 -19q-9 -6 -21 -6.5t-23 2.5q-14 4 -22.5 13.5t-13.5 23.5q-14 35 -18 70.5t-9 72.5
q14 -13 21.5 -21t14.5 -12.5t18 -6.5t32 -3q19 0 33 14q8 9 19 32.5t22.5 55t23 68t22.5 70.5t19.5 62t14.5 44q8 24 20 49.5t19 48.5q5 15 -3 29q-11 18 -31.5 26t-40.5 15q51 14 100.5 28t101.5 22q-4 -87 6 -174t19.5 -174t12.5 -173.5t-15 -173.5zM375 231
q-5 58 -14 115t-14 115q-23 -57 -39.5 -114.5t-39.5 -114.5q14 11 27 22t27 22q14 -11 26.5 -22.5t26.5 -22.5z" />
    <glyph glyph-name="B" unicode="B" horiz-adv-x="538" 
d="M387 332q29 1 50 -13.5t34 -40.5q19 -38 15.5 -86t-24 -92t-55 -77.5t-76.5 -41.5q-17 -3 -34 3q-24 8 -41.5 27t-22.5 45q-1 -18 -3.5 -36t-5.5 -35q-51 1 -102 6q12 70 14.5 141t2.5 142v142t7 142q-9 -2 -18 -1.5t-18 -0.5t-17 -4.5t-14 -12.5q-5 -6 -6.5 -13.5
t0.5 -15.5q-17 21 -21 46t1 50t18 47.5t32 38.5q42 5 83 6.5t83 1.5q-8 -45 -12.5 -90t-8.5 -90q17 29 46 49t64 18q30 -2 50.5 -19.5t31.5 -42.5t13 -55t-5 -57.5t-22.5 -49.5t-38.5 -31zM243 442q-1 -40 -0.5 -79t2.5 -79q1 -26 1 -53t-2 -53q-1 -13 -2.5 -25.5
t-1.5 -25.5q0 -9 5.5 -18.5t12.5 -14.5q15 -12 35 -12q29 1 48 19t28 45.5t8 59t-12 58t-32.5 44.5t-52.5 18q26 3 43 16.5t25.5 31t9 37.5t-6 36t-19 26t-31.5 9q-19 -2 -34 -13t-24 -27z" />
    <glyph glyph-name="C" unicode="C" horiz-adv-x="474" 
d="M424 173q-9 -27 -20.5 -54.5t-27 -52.5t-36 -46t-47.5 -34q-14 -1 -27 -1.5t-27 0.5q-10 0 -22.5 5t-25 12t-23.5 15t-18 15q-36 35 -56.5 81t-30.5 96q-5 25 -8 49.5t-4 49.5q-2 63 17 126.5t55.5 117t89 91.5t117.5 50q28 -6 45 -24.5t26 -43.5t11.5 -52.5t2.5 -51.5
q-22 -25 -41.5 -51.5t-38.5 -53.5q-4 19 -6.5 40.5t-7.5 41.5t-15 37t-29 28q-35 -18 -56 -47.5t-33 -64t-16 -72t-4 -72.5q0 -24 2 -48t9 -46t20.5 -41t35.5 -33q21 -14 46 -13.5t49 2.5q20 1 32 2.5t21.5 5.5t18 12.5t22.5 24.5z" />
    <glyph glyph-name="D" unicode="D" horiz-adv-x="511" 
d="M99 659q29 3 64.5 7t71.5 3.5t70 -7t59 -22.5q36 -23 54.5 -58t26.5 -75t9.5 -82.5t4.5 -79.5q3 -42 -1.5 -86t-17 -85t-35 -78.5t-55.5 -65.5q-20 -17 -48.5 -30t-55.5 -15q-29 -2 -58.5 0.5t-58.5 4.5q11 71 12.5 143t1 144t0 144t9.5 144q-15 -6 -30 -10.5t-27 -12.5
t-18.5 -21.5t-4.5 -36.5q-17 21 -21 44.5t1 47t17.5 45t29.5 38.5zM233 120q42 0 70.5 20.5t45 52t22.5 69.5t3 73q-2 23 -3 46.5t-4 47t-10 45.5t-22 42t-42 32.5t-51 17.5q-9 -55 -9.5 -111t1 -112l3 -112t-3.5 -111z" />
    <glyph glyph-name="E" unicode="E" horiz-adv-x="445" 
d="M395 164q-11 -38 -19.5 -76t-33.5 -70q-7 -9 -19 -18.5t-23 -11.5q-19 -5 -53 -5t-71 2.5t-71.5 6.5t-54.5 8q9 82 9 165t-0.5 166t4 165.5t22.5 163.5q137 17 271 -1q19 -18 24.5 -40.5t2.5 -46t-12.5 -46t-22.5 -40.5q1 9 1 19t-2.5 19t-8 16.5t-15.5 10.5
q-13 4 -31.5 6.5t-38.5 4t-39.5 2.5t-33.5 2q-5 -54 -7 -107.5t-1 -107.5q17 9 33 20t33 19q18 -14 36.5 -27t35.5 -28q-17 -14 -33.5 -27.5t-33.5 -27.5q-17 8 -34.5 16t-34.5 17q3 -57 0 -111.5t-6 -111.5q15 1 38 1q24 0 48.5 1t46.5 3t35 6q4 2 9.5 5.5t9.5 6.5
q11 11 20 25t20 26z" />
    <glyph glyph-name="F" unicode="F" horiz-adv-x="413" 
d="M334 655q18 -17 24 -39.5t3.5 -46t-12 -46t-21.5 -40.5q2 17 -1 36t-21 26q-27 11 -60 14t-62 8q-5 -54 -5 -109q0 -54 -1 -108q16 11 32.5 19.5t33.5 17.5q18 -14 36.5 -27.5t35.5 -27.5q-17 -14 -35 -27.5t-35 -27.5q-17 8 -33.5 16.5t-33.5 17.5q2 -83 -2.5 -164.5
t-13.5 -163.5q-29 1 -57 5t-56 9q8 82 8 164q0 83 -0.5 165.5t3 165t18.5 164.5q63 10 127.5 9.5t127.5 -10.5z" />
    <glyph glyph-name="G" unicode="G" horiz-adv-x="507" 
d="M258 197l10 57q4 24 6 44.5t9.5 35.5t23.5 25.5t46 15.5q11 2 28 2q18 0 35 -4t29 -13t12 -26q0 -16 -5.5 -36t-13.5 -41t-16.5 -41t-14.5 -35q-11 -30 -20.5 -62t-24.5 -61q-6 -11 -15.5 -22.5t-17.5 -22.5q-11 -13 -21.5 -19t-22.5 -8t-26 -1.5t-30 0.5q-9 0 -21.5 5
t-24.5 12t-23 15t-18 15q-35 36 -53.5 82.5t-26.5 96.5q-4 24 -6.5 48t-4.5 49q-3 62 15 125.5t53.5 117.5t87 92.5t115.5 51.5q29 -6 46 -24.5t25 -43t10 -52t1 -51.5q-22 -26 -41 -54t-40 -54q-4 19 -6 40.5t-7 41t-14.5 37t-28.5 29.5q-35 -18 -56.5 -47t-33.5 -64
t-16 -73t-5 -74q0 -24 1.5 -48t8.5 -45.5t21 -40.5t37 -33q21 -13 39.5 -12t41.5 0q4 8 6.5 16t6.5 16q14 27 26.5 54.5t24.5 55.5q-18 0 -31.5 -6.5t-25 -17t-21.5 -23.5t-19 -25l-4 -2z" />
    <glyph glyph-name="H" unicode="H" horiz-adv-x="661" 
d="M611 173q-6 -21 -12.5 -42.5t-14.5 -42t-19.5 -39t-28.5 -34.5q-30 -27 -72 -27h-10q-4 0 -9 -1q-39 -4 -68 20.5t-39 60.5q-3 11 -2 32.5t3.5 45.5t5 47t3.5 38v57q0 29 -2 58q-19 -13 -37 -26.5t-37 -26.5q-20 14 -40.5 26.5t-40.5 26.5q6 -90 -0.5 -179t-21.5 -178
q-27 2 -53.5 4.5t-53.5 5.5q10 52 13.5 106t3.5 108t-2 108t-1 108q1 25 2.5 50t4.5 50q2 11 4 21t3 21q2 17 -12 26.5t-28 13.5q45 25 90 48.5t90 46.5q-45 -170 -39 -348q20 12 38.5 26.5t39.5 25.5l77 -50q-1 27 -1.5 54t1.5 55q0 26 4.5 56t4.5 52q0 17 -14.5 28.5
t-28.5 16.5q43 21 86 41l86 40q-7 -32 -11 -64t-6 -65q-5 -97 -3 -193.5t-3 -193.5q-2 -20 7 -37q6 -13 21 -17.5t32.5 -3.5t34.5 6.5t26 12.5q8 5 15 11.5t14 13.5z" />
    <glyph glyph-name="I" unicode="I" horiz-adv-x="262" 
d="M194 -3q-26 -8 -54 -8.5t-55 4.5q8 111 6.5 220.5t-1.5 220.5q0 26 0.5 50.5t1.5 50.5q0 11 1.5 23t0.5 23q-2 17 -15.5 25t-28.5 10q35 29 76 51.5t86 30.5l-4 -168q-2 -134 -1.5 -267t-12.5 -266z" />
    <glyph glyph-name="J" unicode="J" horiz-adv-x="589" 
d="M539 692q-5 -48 -7.5 -94.5t-2.5 -94.5q0 -32 1.5 -83.5t2.5 -112.5t0.5 -125.5t-4.5 -123t-11.5 -104.5t-21.5 -70q-27 -50 -82 -75q-24 -11 -55 -13q-11 -1 -34 -1h-50q-27 0 -57 1t-56 3.5t-45.5 7t-26.5 11.5q-12 12 -19.5 33.5t-11.5 46.5t-6 49.5t-3 41.5
q6 -7 11.5 -13.5t11.5 -13.5t12.5 -11t16.5 -5q35 -4 71 -5t72 -3q35 0 71 -1.5t71 2.5q16 1 29 16q11 13 14 29q7 50 9 101.5t1 103t-3 102.5t-2 102q1 31 1.5 61.5t2.5 61.5q1 14 3 29.5t1 29.5q-1 17 -16 28t-29 19q36 17 70 36.5t71 33.5zM356 132q-10 -12 -22 -21.5
t-22 -21.5q-12 10 -22 21.5t-22 20.5l44 44q12 -10 22 -21.5t22 -21.5zM238 131q-11 -11 -22 -21t-22 -21q-11 11 -21.5 22t-21.5 22q11 10 21.5 20t21.5 21q11 -11 22.5 -21t21.5 -22z" />
    <glyph glyph-name="K" unicode="K" horiz-adv-x="592" 
d="M538 172q-9 -31 -21.5 -64t-31.5 -60t-46 -44.5t-65 -17.5q-26 0 -49 5t-43 25q-20 21 -32.5 45.5t-20.5 51t-14.5 53.5t-15.5 53h-3q-3 -58 -8 -115.5t-13 -115.5q-27 3 -54 4.5t-54 6.5q7 53 10 107t3 108t-1 107.5t0 107.5q1 36 4.5 71.5t6.5 71.5q0 4 -0.5 7.5
t-2.5 7.5q-5 11 -15.5 15.5t-21.5 9.5q44 25 87.5 48.5t88.5 46.5q-16 -71 -23.5 -143t-9.5 -144h3q16 31 33.5 62t37.5 60.5t44 55t55 44.5q18 11 37.5 18.5t39.5 9t39 -5t35 -23.5q12 -13 19 -28.5t5 -33.5q-2 -16 -4.5 -32t-11.5 -30q-6 21 -22.5 34.5t-38.5 15.5
q-44 3 -78.5 -17t-61 -51.5t-47 -69.5t-37.5 -71q8 -27 14.5 -65.5t18.5 -74.5t33.5 -62t60.5 -29q13 -1 27 0t28 1q23 1 37 1q15 0 27 4t23.5 12.5t28.5 26.5z" />
    <glyph glyph-name="L" unicode="L" horiz-adv-x="530" 
d="M441 290q-11 -11 -21 -22t-22 -21q-10 11 -21 20.5t-21 20.5q12 9 21 21t21 22q9 -12 21 -21t22 -20zM480 135q-11 -34 -26.5 -67t-43.5 -57q-9 -7 -20.5 -12.5t-22.5 -7.5q-21 -3 -55.5 -4t-71.5 0.5t-71 6t-53 12.5q-25 9 -43 29q-14 15 -18 32t-3.5 35t3 37t1.5 37
q0 -6 -0.5 -12t-1.5 -12q-2 17 -0.5 36t3.5 36q1 14 0.5 28t-0.5 28q-2 50 -3.5 98.5t3.5 99.5q6 68 18 140q26 23 54.5 43.5t56.5 41.5q-8 -35 -13.5 -70.5t-8.5 -71.5q-5 -72 -6 -143t0 -143q1 -35 1 -71t-3 -71q-1 -9 0.5 -15t7.5 -14q5 -6 11 -10.5t14 -5.5
q26 -3 54.5 -2t54.5 1t50.5 -0.5t47 3.5t43.5 14t41 31zM326 288q-11 -11 -21.5 -22t-22.5 -21q-9 12 -20 22t-22 21q12 10 21.5 21.5t21.5 20.5q10 -12 21 -21.5t22 -20.5z" />
    <glyph glyph-name="M" unicode="M" horiz-adv-x="704" 
d="M431 576q20 27 52.5 47t67.5 17q33 -3 54.5 -23t32.5 -50t12.5 -59t2.5 -61q1 -71 -17 -135.5t-51 -122.5t-78 -109t-97 -95h-21q40 42 69 92.5t47 106.5q10 32 15.5 59.5t8 54t2.5 54.5v61q0 13 -0.5 30.5t-5 32.5t-15.5 25t-31 9q-17 -2 -31 -11.5t-23 -23.5
q-4 -65 -11.5 -132t-24.5 -131t-48 -122t-82 -104h-11q-5 0 -10 1q36 54 52 115q15 61 19.5 123.5t1.5 125.5q-2 31 -4 63t0 62q1 17 2.5 32t-3.5 31q-5 18 -15 26.5t-29 6.5q-26 -2 -42.5 -18.5t-27.5 -38.5q-4 -66 -3 -131.5t1 -131.5t-4 -131.5t-19 -130.5l-54 4t-54 6
q11 52 14.5 105.5t3.5 107.5t-1.5 108t-0.5 107q1 36 5 71t9 71q1 7 -3 15q-5 11 -15.5 16t-20.5 10q45 23 89 47.5t90 45.5q-5 -21 -10.5 -41.5t-9.5 -41.5q28 43 67.5 65.5t75 20t59 -34t20.5 -96.5z" />
    <glyph glyph-name="N" unicode="N" horiz-adv-x="494" 
d="M209 628q18 35 53 59t76 22q24 -1 43 -14t33 -33t22 -44t8 -45q1 -91 -7.5 -180t-34.5 -176q-20 -63 -50.5 -120.5t-76.5 -106.5h-21q24 41 38.5 85.5t22.5 91t10.5 94t1.5 94.5l-2 125q0 8 0.5 16t0.5 17q-3 26 -16 46.5t-43 18.5q-14 -1 -23.5 -4.5t-19.5 -13.5
q-5 -6 -14 -18.5t-11 -20.5q-2 -11 -2.5 -28.5t-0.5 -36.5t0.5 -37.5t0.5 -30.5q2 -99 1.5 -199t-18.5 -198l-54 4t-53 7q7 53 9 107t2 108t-1 108.5t0 108.5q0 24 1 48.5t3 48.5q1 11 2.5 23t1.5 23q0 17 -13.5 25.5t-27.5 13.5q42 25 83.5 49.5t86.5 45.5
q-2 -21 -6.5 -41.5t-4.5 -41.5z" />
    <glyph glyph-name="O" unicode="O" horiz-adv-x="529" 
d="M320 352q-11 -11 -21 -21.5t-21 -21.5l-21.5 21.5t-22.5 20.5q12 10 22 21.5t21 22.5q9 -12 20.5 -22t22.5 -21zM295 549q7 15 26 24.5t35 7.5q33 -3 57.5 -28t40 -65t21.5 -90.5t1 -103.5t-21.5 -104.5t-45.5 -94.5t-71.5 -72.5t-99.5 -37.5q-54 12 -89.5 48t-56.5 84.5
t-30 102.5t-11 101q-2 31 2.5 61.5t12.5 60.5q14 60 45.5 114t80.5 94q20 17 51.5 32t58.5 18q23 2 43 -14t28 -36q-64 -13 -107 -54.5t-68 -97.5t-32 -118.5t3 -116.5t35.5 -92t65.5 -45q43 9 66.5 40t33.5 72t10 84q0 44 -4 79q-2 13 -4 28.5t-5 31t-7.5 30.5t-10.5 27
q-7 14 -17 22.5t-27 10.5z" />
    <glyph glyph-name="P" unicode="P" horiz-adv-x="545" 
d="M224 543q-17 9 -21 26.5t0 34.5q10 46 46 71.5t79.5 28t84.5 -19t60 -67.5q8 -21 13.5 -50t7 -59.5t0 -60t-7.5 -51.5q-8 -30 -23 -58.5t-37 -49.5t-50 -33t-62 -10q-32 2 -61 10.5t-54 28.5h-3q2 -75 -3.5 -149t-16.5 -148q-23 2 -44.5 4t-44.5 5q12 100 14 201.5
t-5 201.5q-2 20 -16 28.5t-30 14.5q37 22 73.5 44.5t74.5 43.5q-1 -13 -3 -32.5t-3.5 -39.5t-2 -39t1.5 -31q2 -20 20.5 -33t36.5 -17q19 -5 38 -4t37 12q21 13 34.5 37.5t20 54t5.5 61t-10.5 57.5t-27 44t-43.5 21q-16 2 -31.5 -4t-26.5 -17q-12 -11 -18 -26t-2 -31z" />
    <glyph glyph-name="Q" unicode="Q" horiz-adv-x="509" 
d="M286 550q8 15 26.5 25t35.5 7q30 -5 51 -27t33.5 -53.5t18.5 -69.5t7 -75t-1 -70.5t-6 -55.5q-5 -29 -13 -57t-22 -54q-24 -50 -67 -88q-9 -8 -21.5 -16t-27 -14.5t-29 -10t-26.5 -3.5q-23 1 -50.5 14.5t-44.5 29.5q-26 25 -45 60.5t-31 74.5t-18 79.5t-6 75.5
q0 42 8.5 88t25.5 90t42 83t57 68q20 18 50.5 34t57.5 19q24 3 45 -13.5t29 -38.5q-60 -11 -103 -51.5t-69 -95.5t-35 -117.5t0 -117t35.5 -94t71.5 -47.5q34 7 55 28t33 53q10 26 14.5 68.5t3 87.5t-9 86.5t-20.5 66.5q-9 17 -22 26.5t-33 4.5zM382 -119q-11 -13 -23.5 -24
t-24.5 -23q-8 11 -16.5 21t-17.5 20q11 12 22.5 22.5t22.5 22.5l18 -20t19 -19zM308 -62q-11 -12 -23 -22.5t-23 -21.5q-10 11 -19.5 21.5t-18.5 21.5q22 22 46 43q10 -11 19.5 -21t18.5 -21z" />
    <glyph glyph-name="R" unicode="R" horiz-adv-x="547" 
d="M497 173q-9 -28 -17 -60.5t-22 -60.5t-37 -46.5t-62 -18.5q-17 0 -32.5 -1t-28.5 13q-11 13 -17 29q-21 66 -46.5 128.5t-57.5 124.5q2 -74 -4 -147t-15 -146q-27 2 -54 4.5t-54 7.5q9 73 10 146t0 146t0.5 146t11.5 145q37 -19 72.5 -39t71.5 -40q-6 -3 -14.5 -7
t-16 -9.5t-13 -12.5t-6.5 -15q-1 -9 -0.5 -18t-1.5 -18q-2 -15 -1 -31t11 -28q10 -13 25 -20.5t32 -9.5t33.5 1t30.5 12q21 13 35.5 38t21.5 55t6 61t-10.5 57t-27.5 43.5t-46 20.5q-16 2 -30.5 -4.5t-25.5 -17.5t-15 -26.5t1 -30.5q-21 10 -24 37.5t11.5 56t45.5 48.5
t78 16q18 -2 35.5 -8t32.5 -17q23 -18 37.5 -41t22.5 -48.5t11 -53.5t3 -55q0 -21 -0.5 -41t-5.5 -41q-17 -80 -70.5 -121.5t-137.5 -24.5q17 -23 31 -47t28 -49q9 -17 28 -23q16 -6 36 -4q34 1 51 1t27.5 3t21 12t31.5 29z" />
    <glyph glyph-name="S" unicode="S" horiz-adv-x="422" 
d="M54 192q23 -41 58.5 -54t80.5 -11q15 0 29 0.5t21 18.5q3 10 2.5 17t-3.5 16q-14 38 -26 77t-28 77q-12 31 -25.5 66t-24 71.5t-16 73t-0.5 70.5q2 20 14.5 37.5t29.5 28.5q24 16 50 21.5t50 0.5t45 -21t35 -43q10 -19 12 -41q2 -23 3 -45.5t2 -45.5q0 -9 2 -21.5
t3.5 -26t2.5 -25.5t1 -18q0 -5 -5 -5.5t-8 -2.5q-10 21 -20 45t-22.5 46.5t-30.5 39.5t-43 23q20 -92 49 -180t54 -179q11 -37 5 -74q-7 -38 -27 -71t-53 -54q-21 -13 -41 -15.5t-44 -2.5q-58 0 -89 50q-8 13 -14 33t-11.5 42t-10.5 43.5t-11 38.5h4z" />
    <glyph glyph-name="T" unicode="T" horiz-adv-x="599" 
d="M549 506q-10 12 -24.5 25t-31.5 15q-13 1 -30.5 3.5t-35.5 2t-33.5 -5t-25.5 -16.5q-8 -9 -8 -24q-5 -103 -2.5 -205.5t-6.5 -206.5q-6 -67 -23 -135q-39 23 -78.5 45t-78.5 45q16 5 31.5 15t19.5 27q7 30 8.5 73.5t0.5 90.5t-2.5 93t-1.5 79q0 14 0.5 28t-1.5 28
q-1 12 -5.5 27t-14.5 23q-8 7 -19.5 10t-24 4t-25.5 1h-22q-20 1 -35.5 -8.5t-29.5 -23.5q1 32 2.5 65t6.5 65q16 17 40 28t50.5 15t52.5 1t45 -15q10 -6 15.5 -16t8 -22t3.5 -24t2 -22h3q2 25 15 46t33.5 35t45 19t48.5 -1q40 5 63 -13t36 -47t18.5 -63t10.5 -61z" />
    <glyph glyph-name="U" unicode="U" horiz-adv-x="605" 
d="M555 172q-11 -41 -23 -80.5t-41 -72.5q-17 -20 -34 -25t-43 -7q-11 0 -25.5 -0.5t-28 1.5t-24.5 9t-16 22q-2 7 -2.5 16t-2.5 17q-2 16 0 33h-2q-8 -21 -23.5 -39.5t-35 -32.5t-41.5 -21.5t-42.5 -5t-38 15.5t-27.5 40q-8 23 -11 44q-1 11 -1.5 22t0.5 22q2 39 3.5 78.5
t-0.5 78.5q-1 39 -1 78v79q0 19 -15.5 27.5t-29.5 14.5q41 22 80.5 45t80.5 46q-8 -56 -9 -112.5t-0.5 -113t0.5 -113.5q0 -56 -6 -112q23 0 44 9t38 24t28 35t12 43q1 42 0 84t-3 85q-2 56 3 113l4 28t2 27q0 17 -14.5 28.5t-28.5 17.5q42 22 84 42t86 39
q-15 -98 -16.5 -197t-1.5 -198q0 -32 0.5 -65.5t-3.5 -65.5q-1 -10 -0.5 -16.5t6.5 -14.5q6 -9 18.5 -12.5t26 -2.5t26.5 5.5t21 11.5q7 6 13.5 12.5z" />
    <glyph glyph-name="V" unicode="V" horiz-adv-x="552" 
d="M502 663q-14 -75 -39.5 -147t-47.5 -145q-10 -35 -14.5 -71t-15.5 -71q-8 -24 -17 -47.5t-18 -46.5q-9 -24 -21.5 -44.5t-23.5 -43.5q-5 -11 -12.5 -19.5t-10.5 -19.5q-13 -10 -19 -24q-13 46 -30.5 87.5t-36 82.5t-35.5 83.5t-28 91.5q-6 30 -10 61t-4 62q-1 30 2 62
t11 61q3 11 3.5 18t-3.5 18q-6 19 -23 28q-14 -11 -29.5 -18.5t-29.5 -18.5v9q4 6 17.5 17t29 22t30 21t22.5 14q31 17 60 -5q27 -21 32 -55q8 -57 4.5 -113t-3.5 -113q0 -28 2 -55.5t6 -55.5t13 -54.5t23 -51.5q9 64 20 132t31.5 132t54.5 120.5t89 99.5q5 0 10.5 -1
t10.5 -2z" />
    <glyph glyph-name="W" unicode="W" horiz-adv-x="691" 
d="M641 689q-7 -48 -9 -96.5t-2 -97.5q0 -48 1 -96.5t1 -96.5q0 -32 -1 -64t-6 -64q-4 -25 -12 -48t-19 -46q-22 -45 -57.5 -66.5t-83.5 -27.5q-19 -2 -37.5 -3.5t-38.5 -1.5q-24 0 -41 13t-26.5 32.5t-13.5 42t-3 42.5q-21 -26 -53.5 -45.5t-67.5 -17.5t-58.5 22t-38 49
t-20 62t-4.5 62q1 36 4 68t15 67q16 49 41 93.5t56.5 84.5t67.5 76.5t74 70.5h21q-77 -89 -116 -199q-5 -14 -12.5 -44t-13.5 -66.5t-8.5 -75.5t2.5 -70.5t19.5 -51.5t42.5 -18q17 1 32 10.5t24 24.5q6 64 13.5 130.5t24 130t45.5 122t77 106.5q5 -1 10 -1h11
q-30 -54 -45 -116q-11 -47 -14.5 -93t-4 -92.5t0.5 -93t0 -93.5q0 -16 -1 -31t4 -31t15 -26.5t28 -8.5q20 2 36 21.5t22 37.5q9 29 13.5 60.5t9.5 61.5q14 91 26.5 182.5t36.5 181.5q8 8 16.5 14t16.5 14z" />
    <glyph glyph-name="X" unicode="X" horiz-adv-x="651" 
d="M601 173q-13 -45 -32.5 -86.5t-56.5 -72.5q-9 -8 -26 -16.5t-29 -9.5h-18q-20 -3 -42.5 4.5t-37.5 22.5q-18 20 -29 43t-18.5 48t-14 50.5t-15.5 49.5q-8 -16 -19 -41.5t-25 -52.5t-31.5 -53t-37.5 -42.5t-43 -20.5t-48 12q-18 11 -28 32q34 1 58.5 20t42.5 46.5
t31.5 58.5t25.5 57q9 20 17.5 40.5t16.5 41.5q-26 51 -45 105q-3 7 -9 26t-13 40t-13 38.5t-9 21.5q-5 9 -16 12q-20 -5 -32 -21q13 48 47.5 85.5t81.5 54.5q21 -18 32.5 -41t18.5 -48.5t12 -52t13 -50.5q23 47 51 90.5t54 88.5q23 11 46 20.5t46 20.5q-43 -82 -86.5 -163
t-76.5 -169q7 -21 13.5 -42t14.5 -41q7 -20 13 -42.5t15 -43.5t22.5 -38t36.5 -26q29 1 46.5 0.5t31 2t27.5 11.5t37 30z" />
    <glyph glyph-name="Y" unicode="Y" horiz-adv-x="611" 
d="M561 693q-8 -71 -9.5 -141.5t-0.5 -141.5l2 -142t0 -142q-1 -45 -3.5 -94t-12.5 -94q-3 -13 -11 -28t-16 -26q-35 -51 -93 -75q-14 -5 -28.5 -8.5t-29.5 -4.5q-12 -1 -34 -1h-50q-27 0 -57 1.5t-56 4t-45.5 7t-26.5 11.5q-13 12 -20.5 33.5t-11 46t-5.5 48.5t-3 42
q11 -14 23.5 -27.5t31.5 -15.5q21 -2 60.5 -4.5t82 -4t80.5 -1.5q39 0 58 3q7 1 15.5 5.5t14.5 9.5q14 12 15 28q3 30 4.5 61t2.5 62h-5q-14 -32 -43.5 -50t-64.5 -19q-47 -1 -71.5 25.5t-35 65t-12 81.5t-2.5 75q0 13 0.5 30.5t0.5 35.5t-1.5 34.5t-7.5 27.5
q-10 20 -30.5 22t-38.5 -8q-17 -8 -26 -24q0 33 19 56t46 33.5t58 7t55 -22.5q14 -11 25 -30q6 -12 8 -31.5t1.5 -44t-1 -51t0 -51.5t4 -45.5t11.5 -33.5q10 -16 27 -21t33.5 -1t30.5 15.5t20 28.5q-2 46 -3 91.5t-1 92.5q1 31 2 61.5t3 62.5q1 14 2.5 29.5t1.5 29.5
q-1 16 -16.5 27.5t-27.5 18.5q40 19 79.5 37.5t81.5 32.5z" />
    <glyph glyph-name="Z" unicode="Z" horiz-adv-x="522" 
d="M472 173q-11 -43 -28 -85.5t-51 -73.5q-10 -10 -24.5 -17.5t-28.5 -9.5q-26 -4 -54.5 -2.5t-55.5 0.5q-37 -1 -68 21q-14 11 -25.5 25t-17.5 31q-10 26 -12.5 55t-1.5 57q1 36 14.5 66t31.5 57.5t37 55.5t31 59q-7 -6 -19 -9.5t-25 -3.5t-25.5 3t-20.5 8q-20 14 -30 35.5
t-10 44.5q0 11 9 40t22 61.5t25.5 62.5t18.5 42q-4 -19 2.5 -38.5t19 -35t31 -23.5t38.5 -4q11 2 20 8.5t17.5 14t17.5 14t20 9.5q14 -5 21.5 -15t10.5 -24q7 -36 -5.5 -72t-35.5 -72.5t-50.5 -72.5t-51 -70t-36.5 -66t-7 -60q4 -17 14 -32t26 -24q9 -5 36 -6.5t58.5 -0.5
t60.5 2.5t42 2.5q19 2 33.5 15t25.5 27zM315 293l-21.5 -21.5l-21.5 -21.5q-11 11 -22 21.5t-22 21.5q11 10 21.5 21t21.5 21l21.5 -21.5t22.5 -20.5zM134 294q-10 -11 -20 -21l-21 -21l-21.5 21.5l-21.5 21.5q12 8 21.5 18.5t19.5 21.5q10 -11 21 -21z" />
    <glyph glyph-name="bracketleft" unicode="[" 
d="M626 30q-35 -24 -76 -35t-83 -8q-64 4 -120.5 34.5t-96.5 80.5q-14 17 -22.5 35.5t-18.5 38.5q-20 45 -30 92.5t-2 97.5q6 39 26.5 76.5t50 70t64 58.5t69.5 43q-26 -14 -44.5 -37.5t-29.5 -50.5q-18 -46 -15.5 -94.5t17.5 -96t38.5 -92.5t47.5 -84q7 -12 17.5 -29
t22 -33.5t23 -31t22.5 -23.5q30 -24 68.5 -29.5t71.5 17.5zM457 415q19 -8 36 -17.5t36 -17.5q17 11 35 20.5t35 20.5q-4 -20 -6.5 -39t-6.5 -39q16 -14 32 -26.5t33 -23.5l-40 -6t-40 -8q-8 -19 -15 -38t-16 -37q-7 19 -17 36.5t-19 34.5q-20 2 -41 2.5t-41 2.5
q13 15 27 29t27 29q-5 20 -9.5 39t-9.5 38z" />
    <glyph glyph-name="backslash" unicode="\" horiz-adv-x="318" 
d="M268 -84q-15 -5 -29.5 -9t-30.5 -5q15 2 30.5 5.5t29.5 8.5zM268 -84q-10 100 -31.5 197.5t-46 195t-47 195t-34.5 197.5q-15 -1 -30 -4.5t-29 -8.5q10 -100 32 -198t46.5 -195.5t46.5 -195t33 -197.5q15 2 30.5 5.5t29.5 8.5z" />
    <glyph glyph-name="bracketright" unicode="]" 
d="M139 562q35 24 75.5 34.5t83.5 8.5q63 -5 120 -35t96 -80q14 -18 23 -36t18 -38q21 -45 31 -92.5t2 -97.5q-6 -39 -26.5 -76.5t-50 -70t-64.5 -58.5t-69 -43q26 14 44.5 37t29.5 51q18 46 15 94.5t-18 96t-38.5 92.5t-46.5 84q-8 12 -18 28.5t-21.5 33t-23.5 31.5t-23 24
q-29 24 -68 29.5t-71 -17.5zM308 176q-19 8 -36.5 17.5t-35.5 17.5q-17 -11 -35 -20t-35 -20q4 20 6.5 39t5.5 39q-16 13 -31.5 25.5t-32.5 23.5q20 4 39.5 7t39.5 7q8 20 15 38.5t16 37.5q8 -19 17.5 -36.5t19.5 -35.5q20 -1 40.5 -2t41.5 -2q-14 -15 -27.5 -29t-27.5 -29
q6 -20 10.5 -39t9.5 -39z" />
    <glyph glyph-name="asciicircum" unicode="^" 
d="M626 222q-35 -24 -76 -35t-83 -8q-64 4 -120.5 34.5t-96.5 80.5q-14 17 -22.5 35.5t-18.5 38.5q-20 45 -30 92.5t-2 97.5q6 39 26.5 76.5t50 70t64 58.5t69.5 43q-26 -14 -44.5 -37.5t-29.5 -50.5q-18 -46 -15.5 -94.5t17.5 -96t38.5 -92.5t47.5 -84q7 -12 17.5 -29
t22 -33.5t23 -31t22.5 -23.5q30 -24 68.5 -29.5t71.5 17.5zM457 607q19 -8 36 -17.5t36 -17.5q17 11 35 20.5t35 20.5q-4 -20 -6.5 -39t-6.5 -39q16 -14 32 -26.5t33 -23.5l-40 -6t-40 -8q-8 -19 -15 -38t-16 -37q-7 19 -17 36.5t-19 34.5q-20 2 -41 2.5t-41 2.5
q13 15 27 29t27 29q-5 20 -9.5 39t-9.5 38z" />
    <glyph glyph-name="underscore" unicode="_" horiz-adv-x="346" 
d="M357 -309q9 5 19.5 8.5t15.5 13.5l-1 2l2 9q2 3 4 5.5t4 5.5q-100 2 -198 2t-197 -2q-10 -5 -19.5 -9.5t-17.5 -12.5q-1 -1 0 -5t2 -6l-8 -11q99 -1 196.5 -1.5t197.5 1.5z" />
    <glyph glyph-name="grave" unicode="`" horiz-adv-x="355" 
d="M322 458q-42 -29 -84.5 -25.5t-77.5 28.5t-57.5 65t-23 84.5t26 87.5t88.5 74q-14 -8 -24 -20.5t-16 -27.5q-10 -24 -8.5 -50.5t10 -52t21 -49.5t24.5 -45q8 -14 21.5 -33.5t24.5 -29.5q17 -13 37.5 -16t37.5 10zM231 665q11 -5 20 -9.5l19 -9.5q9 6 19 11t19 11
q-2 -11 -3.5 -21t-3.5 -21q8 -7 17 -14t18 -13q-11 -2 -21.5 -3.5t-21.5 -3.5q-4 -11 -8 -21t-9 -20q-4 11 -9 20t-10 19l-44 2q7 8 14 15.5t15 15.5q-3 11 -5.5 21t-5.5 21z" />
    <glyph glyph-name="a" unicode="a" horiz-adv-x="765" 
d="M715 132q-4 -24 -17.5 -47.5t-33.5 -42.5t-44 -32t-49 -15q-17 -2 -35.5 -1.5t-35.5 0.5t-40 -1t-46 0.5t-43.5 7t-33.5 19.5q-6 6 -10.5 16t-7.5 21l-6 22t-6 20h-2q-35 -45 -87 -72.5t-109 -28.5q-28 0 -44 20q-17 20 -13 47q4 22 7.5 42.5t8.5 42.5q9 36 33.5 63.5
t56.5 48.5t68 35.5t69 24.5q6 -14 13.5 -28t17.5 -27q23 14 46 26.5t46 26.5h3q-11 -20 -21 -49.5t-13.5 -60.5t2.5 -58.5t27 -43.5q13 -10 31 -13.5t37 -4t38 0.5t35 1q22 0 43.5 -1t41.5 2t38 11.5t35 27.5zM305 241q-24 -7 -49.5 -18t-48.5 -26.5t-40.5 -36t-24.5 -46.5
v-1l8 -9l11 -2q25 8 44.5 23.5t36 35t31.5 41t32 39.5z" />
    <glyph glyph-name="b" unicode="b" horiz-adv-x="368" 
d="M224 312q20 3 40 -6q18 -8 30.5 -23.5t18.5 -35.5q4 -12 3.5 -26t-2.5 -29t-6 -29t-8 -26q-9 -26 -22 -51t-31 -46t-41 -35.5t-52 -19.5q-35 14 -53.5 41t-29.5 62q-8 26 -12.5 67.5t-7 90.5t-2.5 103t1.5 104t4 92.5t5.5 70.5q27 22 54 43.5t56 41.5
q-15 -100 -18 -201.5t-3 -203.5q0 -17 -1 -42t-2 -50.5t-1 -49.5q0 -23 2 -38q3 -25 24 -33q28 4 48.5 30t27 56t-5 56t-46.5 29q8 14 14.5 29t14.5 29z" />
    <glyph glyph-name="c" unicode="c" horiz-adv-x="588" 
d="M538 132q-4 -23 -15.5 -46.5t-28.5 -43t-39 -33t-46 -15.5t-49 -1.5t-49 0.5q-39 0 -75.5 0.5t-68.5 10t-58 32t-44 64.5q-19 44 -12.5 80.5t28 65t53 49t64 32t60 13.5t40.5 -6q7 -3 12 -8.5t9 -11.5q8 -13 10 -29t-3 -30q-17 -14 -35 -27.5t-35 -28.5q-3 22 -11.5 44.5
t-32.5 28.5q-27 -6 -47 -28t-27 -49q-8 -27 -0.5 -55.5t36.5 -42.5q5 -3 26 -4t50.5 -2t62.5 -1q34 0 64.5 0.5t54.5 1t33 1.5q20 2 39.5 13.5t33.5 25.5z" />
    <glyph glyph-name="d" unicode="d" horiz-adv-x="357" 
d="M307 613q-2 -49 -2 -97v-97q0 -30 2 -70.5t1 -84.5t-6.5 -88.5t-19.5 -82.5t-37.5 -67t-60.5 -42q-39 8 -63.5 32t-39 55.5t-21 67.5t-9.5 69q-1 11 -0.5 20t3.5 20q9 28 32.5 47.5t55.5 15.5q8 -14 16.5 -28t15.5 -29q-22 0 -35.5 -12t-19 -30t-4 -39t10 -40t23 -33
t33.5 -17q12 4 18 12.5t9 19.5q4 14 5.5 38t2 50.5t0 51.5t-0.5 41q-2 101 -3 201.5t7 202.5z" />
    <glyph glyph-name="e" unicode="e" horiz-adv-x="588" 
d="M489 294q-11 -11 -23.5 -20t-24.5 -19q-9 11 -18 21.5t-17 21.5q13 10 24.5 20t24.5 20q7 -12 16.5 -22t17.5 -22zM538 132q-4 -23 -15 -46.5t-28 -43t-38.5 -33t-45.5 -15.5q-60 -5 -120 -2t-120 2q-82 -2 -114 74q-5 13 -6 23t0 24q2 60 31 105.5t81 76.5q4 3 13.5 7.5
t20 9t20 8t14.5 3.5q13 0 20 -7.5t10.5 -19t3.5 -23.5t-1 -21q-8 -47 -29 -91t-62 -70l2 -2q37 -1 73 -1.5t73 0.5q35 1 73 0t73 3q19 2 38.5 13.5t32.5 25.5zM190 254q-35 -19 -55.5 -54.5t-20.5 -75.5q35 20 52 56t24 74z" />
    <glyph glyph-name="f" unicode="f" horiz-adv-x="447" 
d="M397 657l-20 -129q-12 17 -33.5 25t-44.5 7t-44 -9.5t-34 -24.5q-12 -15 -14.5 -38.5t-6.5 -42.5q17 -1 41 -1.5t49.5 0.5t48.5 4t38 9q-3 -29 -22.5 -51t-45.5 -33q-27 2 -54 -0.5t-55 -1.5q1 -35 1.5 -70t1.5 -70v-47t-2 -47q-1 -11 -2 -22.5t-1 -22.5q1 -18 16 -27
t29 -17q-39 -20 -76.5 -41t-79.5 -35q8 99 9.5 197t-1.5 198q-22 -4 -45 -19q2 26 12.5 50t33.5 38q-1 9 0 18t1 18q8 21 12 43t14 42h3q7 34 26.5 62t47 47t60.5 28t67 6q12 -2 20.5 -4t18.5 -10q18 -13 31 -29z" />
    <glyph glyph-name="g" unicode="g" horiz-adv-x="429" 
d="M354 272q8 -35 14.5 -80.5t8.5 -95t-2 -100.5t-16.5 -96.5t-34 -83t-55.5 -60.5q-22 -15 -44 -22t-49 -6q-12 1 -24.5 0.5t-23.5 1.5q-23 4 -37.5 19.5t-22.5 36.5t-12 44t-6 42q20 -29 45.5 -37t58.5 -8q22 0 44.5 -1t39.5 16q18 17 29.5 51.5t18 73.5t9 77t1.5 62
q-19 -42 -45 -67.5t-53 -34t-51.5 -0.5t-39.5 31.5t-18.5 62.5t12.5 93q6 20 14.5 40t20.5 38q21 35 56 59q13 10 33.5 18t38.5 8t29.5 -11t7.5 -40q-13 -12 -24.5 -25t-23.5 -26q-6 5 -12.5 9t-14.5 5q-41 -29 -55.5 -75.5t-10.5 -94.5q52 16 84.5 59.5t46.5 94.5
q15 7 31 11.5t32 10.5z" />
    <glyph glyph-name="h" unicode="h" horiz-adv-x="715" 
d="M571 286q-11 -11 -22 -21.5t-23 -20.5q-11 10 -20.5 20t-20.5 21q10 11 20 21.5t20 21.5q11 -11 22 -21.5t24 -20.5zM665 132q-8 -20 -19 -43.5t-26.5 -44t-35 -35.5t-43.5 -19q-17 -2 -37 -2q-19 0 -36 -1q-15 0 -32 -2t-35 -2t-35 2.5t-31 10.5q-20 11 -34.5 29t-23 40
t-10.5 45t4 45h-2q-9 -8 -36 -33t-58 -52t-57 -48t-32 -22q-8 -2 -18 2q-18 8 -17 27q4 37 8 73t4 74q0 54 -2 109.5t-1.5 110.5t6 110t19.5 108q32 20 61.5 41.5t61.5 41.5q-24 -63 -33.5 -129.5t-12.5 -134t-3 -135.5t-4 -134q23 29 45.5 57t45.5 57q8 10 20 18t25 8
q5 0 11.5 -2.5t11.5 -5.5q10 -6 11 -19q1 -10 1.5 -33t2 -48t3.5 -46t5 -26q6 -11 17 -21q12 -11 30 -15t38 -4.5t40 1t36 1.5h46t43 4t40.5 13.5t37.5 28.5z" />
    <glyph glyph-name="i" unicode="i" horiz-adv-x="294" 
d="M244 429q-12 -8 -21.5 -18.5t-21.5 -18.5q-9 12 -19 23l-20 22q11 10 21 20.5t22 18.5zM134 438q-12 -11 -22 -22.5t-23 -21.5q-11 8 -20 17.5t-19 18.5q11 13 23.5 24t23.5 23q9 -10 19 -19t18 -20zM195 340q0 -32 0.5 -64t2.5 -64q3 -53 -3 -109t-14 -108
q-23 -2 -44.5 -1.5t-44.5 3.5q2 24 4.5 51.5t4 55.5t1.5 55q0 28 -2 51q-2 19 -18 28.5t-32 15.5q37 21 72 43.5t73 42.5z" />
    <glyph glyph-name="j" unicode="j" horiz-adv-x="454" 
d="M404 403q1 -15 -8 -23.5t-18 -19.5l-9 -4q-7 3 -13 6.5t-10 9.5h1q-8 8 -18 11q-5 10 -2 18q-2 16 9.5 28.5t21.5 23.5q15 -5 27.5 -20.5t18.5 -29.5zM373 331q-3 -75 -3 -150q0 -50 2 -98.5t-0.5 -95.5t-13.5 -93.5t-36 -92.5q-21 -38 -51.5 -59.5t-63.5 -28t-64.5 2.5
t-54.5 33t-33 63t0 93q6 -18 14.5 -36.5t20.5 -33.5t28 -25.5t37 -13.5q37 -5 69.5 15t41.5 57q11 46 12 101.5t-2 114l-6 117t0 109.5q52 14 103 21z" />
    <glyph glyph-name="k" unicode="k" horiz-adv-x="776" 
d="M715 288q-11 -11 -23 -21.5t-23 -21.5q-9 11 -20.5 20.5t-20.5 20.5q11 11 21.5 21t20.5 21q12 -9 23 -19t22 -21zM599 286q-11 -11 -21 -21.5t-21 -21.5l-43 43l21 21t20 21q11 -11 22 -21t22 -21zM726 133q-14 -35 -33.5 -68t-50.5 -56q-10 -7 -22 -11.5t-24 -6.5
q-13 -2 -40 -3t-61 -2t-70.5 -1.5t-69 0.5t-57.5 3t-35 6q-35 14 -61 44.5t-38 66.5q-17 -25 -20.5 -54.5t0.5 -58.5q-23 1 -47 3.5t-47 4.5q16 76 16.5 154.5t-0.5 156.5t4 155.5t29 152.5l115 79q-22 -61 -32.5 -122t-14 -122.5t-2.5 -123.5t2 -126q18 20 41.5 41t50 38.5
t54.5 30t56 14.5q14 2 25.5 -7t17.5 -22q6 -12 6.5 -26t-5.5 -27q-5 12 -17 17q-21 9 -48.5 1t-54.5 -24.5t-51 -37t-38 -34.5q9 -20 22 -41t32 -32q14 -9 28 -10q45 -4 91 -2.5t91 2.5t90 1q46 0 91 5q21 2 41 15t36 27z" />
    <glyph glyph-name="l" unicode="l" horiz-adv-x="434" 
d="M384 173q-7 -26 -16.5 -56t-24.5 -57t-36.5 -46.5t-52.5 -25.5q-11 -2 -20.5 -1t-20.5 0q-38 -2 -63.5 14t-45.5 48q-20 30 -26.5 61t-10.5 66q-3 28 -7 54t-6 51.5t-2.5 51.5t2.5 55q1 16 8.5 50t19.5 68t28 60.5t36 28.5q13 0 20 -8q9 -26 11.5 -57t1.5 -63t-4.5 -64
t-5.5 -59q-3 -41 -9.5 -83t0.5 -82q3 -17 9.5 -33.5t17 -29t25.5 -20t35 -5.5q11 5 28.5 11.5t34.5 14t32 15.5t22 17q5 6 10 12.5t10 11.5z" />
    <glyph glyph-name="m" unicode="m" horiz-adv-x="996" 
d="M833 293q-12 -11 -24 -21t-25 -19q-19 20 -35 41l53 42q8 -11 16 -21.5t15 -21.5zM720 295q-12 -11 -25 -21t-26 -21q-8 11 -16.5 21t-15.5 22q14 10 27.5 20t27.5 21q7 -11 14 -21t14 -21zM946 131q-14 -39 -42.5 -71.5t-66.5 -49.5q-23 -11 -63.5 -15t-86 -4.5t-89 1
t-71.5 0.5q-15 0 -29.5 3t-26.5 14q-17 15 -26 34t-14.5 41t-7.5 44t-5 43h-2q-15 -22 -36 -46t-44 -46.5t-47.5 -43t-46.5 -35.5q-7 -5 -15 -5q-7 0 -13 6q34 82 14 167q-7 -11 -29 -38.5t-47.5 -56t-49.5 -50t-35 -21.5q-6 0 -16 -2q-1 7 1.5 16.5t5.5 21l6 23t3 21.5
q0 24 -2 49.5t-2 50.5q0 26 3.5 50.5t14.5 45.5q30 22 61 40.5t62 38.5q-31 -35 -56 -76.5t-28 -89.5q12 16 35.5 40t50.5 47t54 40t47 19q10 1 16 -9q2 -6 1 -9.5t-4 -8.5q-17 -26 -21.5 -58.5t-4.5 -62.5q14 13 34.5 33t43 39t45 33.5t41.5 17.5q11 1 18 -8q4 -5 4.5 -9
t-1.5 -10q-4 -18 -4.5 -43t4 -50.5t14 -48t24.5 -34.5q21 -18 52 -18q38 1 75 1h76q36 -1 75 -2t75 3q19 2 40.5 14t35.5 24z" />
    <glyph glyph-name="n" unicode="n" horiz-adv-x="728" 
d="M567 290q-11 -11 -23 -21t-23 -21q-8 12 -19 22t-20 21q13 10 24 21t24 20q11 -10 18.5 -22t18.5 -20zM678 131q-6 -23 -19.5 -46t-31.5 -42t-40.5 -32.5t-46.5 -16.5q-18 -2 -37 -2h-37q-14 0 -32 -1t-36 -1t-35 2.5t-28 9.5q-18 12 -31 30t-21 40t-10.5 44.5t0.5 43.5
h-3l-20.5 -20.5t-33 -32t-39.5 -36t-39.5 -34t-33.5 -25.5t-21 -10q-9 1 -19 0q-7 5 -11 11.5t-2 15.5q9 35 8 70.5t-2.5 71.5t-0.5 71.5t13 69.5l52 40t53 39q-30 -51 -43 -108.5t-8 -116.5q6 7 20.5 22.5t32.5 34t38.5 37.5t40 32t35.5 17.5t26 -5.5q5 -5 6 -9t0 -10
q-2 -34 3 -65.5t10 -64.5q2 -16 7.5 -26.5t19.5 -21.5t32 -14.5t37.5 -4.5t39.5 0.5t37 1.5q23 0 46 -0.5t44.5 3t41.5 12t38 26.5z" />
    <glyph glyph-name="o" unicode="o" horiz-adv-x="402" 
d="M262 330q21 1 38.5 -9.5t29.5 -27.5q14 -18 18 -35t3 -40t-3.5 -42t-10.5 -41q-16 -41 -44 -74t-66 -54q-19 -11 -39.5 -17t-41.5 -7q-36 -1 -57 21.5t-30 55t-8 68t9 59.5q19 54 58.5 94.5t88.5 68.5q5 -17 10.5 -33t13.5 -32q-24 -9 -42.5 -27.5t-30.5 -42t-17.5 -48
t-3.5 -44.5t12 -32.5t29 -11.5q21 1 40 15t32.5 34t21 44t5 45t-14.5 36t-38 17q9 16 19.5 29.5t18.5 30.5z" />
    <glyph glyph-name="p" unicode="p" horiz-adv-x="412" 
d="M157 252q27 21 62 42q43 24 72 18.5t45.5 -29t21.5 -60.5t-1 -76t-21 -75.5t-39 -58.5q-10 -9 -27.5 -18t-31.5 -9q-15 0 -30 8t-28 21t-22 28.5t-12 29.5q12 10 24.5 19t23.5 20q8 -13 15.5 -26t24.5 -15q16 6 28.5 23.5t18 38.5t3.5 41t-14 29q-42 -9 -74.5 -37
t-58.5 -60q-1 -22 -0.5 -53.5t1.5 -67t1 -72.5q0 -38 -2 -72t-6 -63t-12 -47q-4 -8 -11 -8q-6 0 -13 3q-8 13 -15.5 31.5t-13 38t-9 38.5t-4.5 35q-5 114 -2.5 232t25.5 230q20 -20 40.5 -39.5t40.5 -39.5z" />
    <glyph glyph-name="q" unicode="q" horiz-adv-x="400" 
d="M350 338q-6 -87 -5 -173t-1 -173v-57q0 -30 -4 -58q-1 -5 -5 -20t-10 -33t-14 -37.5t-16.5 -33.5t-17.5 -20t-16 2q-3 26 -1 54t5 54q8 68 7 137.5t-3 137.5q-11 16 -23 32t-26 30q-29 28 -50 33t-34 -4.5t-17.5 -29.5t-1.5 -41.5t14 -41t30 -28.5q15 1 24.5 12.5
t17.5 22.5q11 -5 22.5 -10t23.5 -8q-4 -13 -11.5 -30.5t-18.5 -33t-25 -26t-31 -10.5q-14 0 -32 9.5t-29 20.5q-19 18 -30.5 48t-17 64t-3.5 68.5t11.5 62.5t27 46.5t42.5 20.5q15 1 32 -5t32.5 -16t30 -21.5t25.5 -21.5q25 19 48.5 39.5t49.5 37.5z" />
    <glyph glyph-name="r" unicode="r" horiz-adv-x="452" 
d="M186 -16q-18 4 -41 10.5t-43.5 17.5t-34.5 27t-14 40q0 14 0.5 28.5t0.5 29.5q-1 14 -2.5 28.5t-1.5 28.5q1 15 8 33t15 31q30 45 76 67t99 24q46 2 81.5 -23t54.5 -61t18.5 -73.5t-26.5 -60.5q-12 -11 -27.5 -16.5t-32.5 -4.5q-12 18 -26.5 33t-28.5 31q48 10 62.5 31
t6 41t-34.5 35.5t-58 15.5q-43 0 -64 -38q-4 -8 -6 -23.5t-2.5 -33t0 -34.5t1.5 -26q2 -24 -0.5 -46t-4.5 -45q-2 -17 6.5 -35.5t18.5 -31.5z" />
    <glyph glyph-name="s" unicode="s" horiz-adv-x="613" 
d="M563 338q-14 -22 -28.5 -42.5t-28.5 -42.5q-11 9 -18.5 13.5t-14.5 7t-15.5 3.5t-21.5 2q7 -29 13 -55.5t21 -52.5q7 -10 7 -25q-1 -32 -19.5 -60t-46.5 -48.5t-60.5 -32t-61.5 -11.5q-22 0 -43.5 0.5t-44.5 0.5h-29t-34.5 1.5t-32.5 6t-24 14.5q-19 21 -23.5 48.5
t-7.5 54.5q8 -12 25 -22t31 -12q29 -4 60 -3t60 1h120q23 0 37.5 10.5t20.5 27t3.5 35.5t-14.5 36l1 4q-8 14 -18 29t-10 32q0 18 7.5 34.5t18.5 30.5q5 5 13.5 15.5t14.5 14.5q16 10 35 13.5t38.5 1t37.5 -10t32 -19.5zM322 145l-22 -22t-23 -21q-11 11 -20.5 22t-20.5 21
q9 11 19.5 21t19.5 21q13 -10 24 -20.5t23 -21.5zM206 145q-11 -11 -21.5 -22t-22.5 -21q-11 11 -21 21.5t-21 21.5q8 12 19.5 21t19.5 21q14 -9 24.5 -20t22.5 -22z" />
    <glyph glyph-name="t" unicode="t" horiz-adv-x="459" 
d="M381 477l-7 -5zM409 197q-21 -30 -34.5 -47.5t-29 -28t-37 -17t-58.5 -14.5q-18 3 -23 23q-3 14 -6 30.5t-1 30.5q6 49 8.5 98t4.5 98l6 6q20 3 40.5 5.5t40.5 5.5q20 15 36.5 37t17.5 48q-33 -14 -63 -19t-65 -9l-6 5q0 11 2 22.5t3 22.5q2 32 6 66.5t1 66.5
q-3 28 -23.5 45.5t-48 22t-57 -6.5t-49.5 -40q-12 -18 -17.5 -38.5t-6.5 -42t0 -43.5t2 -43q0 -7 1 -22t2.5 -31t2 -30t-0.5 -18h2q3 8 3.5 14.5t2.5 14.5q4 18 6 40.5t7 44t15.5 39t31.5 25.5q4 0 8 -1.5t7 -3.5q-5 -47 -7 -93.5t0 -94.5q2 -66 -1 -131.5t-1 -131.5
q1 -14 3 -25t7 -23q8 -18 20.5 -32.5t28.5 -24t34.5 -12t38.5 4.5q5 2 15 4q17 4 34.5 12.5t32 21.5t25 29t14.5 34z" />
    <glyph glyph-name="u" unicode="u" horiz-adv-x="666" 
d="M340 492q0 -48 -28 -76.5t-64 -38.5t-70 -1.5t-46 32.5q-4 8 -3 18.5t4 22t7.5 21.5t7.5 18q-2 -24 15.5 -41t41.5 -13q5 1 10.5 1.5t10.5 0.5q22 -2 38.5 1t35.5 16q12 8 22 18t18 21zM616 132q-13 -36 -32 -67.5t-51 -53.5q-23 -16 -43.5 -18t-46.5 -2q-23 -1 -48.5 -3
t-48.5 5q-39 11 -67.5 40.5t-31.5 71.5h-2q-11 -19 -26 -38t-33.5 -34t-39.5 -25t-44 -11q-18 9 -27.5 25t-14 34.5t-5.5 38.5t-2 38q-2 36 -1 72t-2 73q45 37 92 77q-5 -28 -5.5 -56t0 -56l1 -56t-2.5 -56q33 3 56 21.5t38 45t24.5 57t16.5 57.5q16 7 30.5 14.5t30.5 14.5
q-5 -37 -2 -73.5t3 -74.5q1 -18 -1 -36t0 -37q0 -12 6 -24q8 -6 15 -7t16 -1q43 2 86.5 0.5t86.5 3.5q20 2 40 14.5t35 25.5z" />
    <glyph glyph-name="v" unicode="v" horiz-adv-x="357" 
d="M307 321q-20 -54 -33 -110t-26 -113h-2q-23 -40 -62 -70t-87 -32q-13 0 -22.5 7t-15.5 18q-5 8 -6.5 26.5t-1 42.5t3 50.5t5.5 51t7 44t8 29.5q13 9 26 17l26 16q-7 -22 -13 -45.5t-7 -47t4 -46t19 -43.5q34 4 55.5 23t36.5 45.5t25.5 56t21.5 55.5q8 8 18 13.5t20 11.5z
" />
    <glyph glyph-name="w" unicode="w" horiz-adv-x="536" 
d="M480 140q-23 -44 -57 -78.5t-81 -54.5q-5 -2 -13.5 -4.5t-17.5 -5t-18 -4t-14 -0.5q-7 1 -13.5 6t-10.5 11q-5 9 -6 20t-0.5 22.5t1.5 22.5t0 22h-2q-26 -41 -66 -68q-12 -8 -29.5 -16.5t-35 -12t-33.5 1t-26 21.5q-6 9 -7 21t0 24.5t2.5 25t1.5 23.5q0 36 3.5 75.5
t22.5 71.5q14 9 28.5 17t28.5 16q-11 -21 -19 -44t-10 -46.5t3 -46.5t20 -43q35 5 57 24.5t37 46.5t27 56.5t27 54.5q23 16 44 29q-16 -51 -18 -104.5t3 -107.5q32 5 54 24t37 44.5t25.5 55t20.5 55.5q11 6 20 13.5t20 12.5q-7 -45 -9 -90.5t3 -90.5z" />
    <glyph glyph-name="x" unicode="x" horiz-adv-x="623" 
d="M573 132q-7 -22 -18.5 -45.5t-27.5 -43.5t-37 -33.5t-46 -16.5q-11 -1 -21 -1h-21q-20 0 -43 -1.5t-40 7.5q-29 16 -46 44.5t-30 57.5q-15 -14 -28.5 -32t-28.5 -34.5t-33.5 -27.5t-42.5 -9q-15 1 -32 6.5t-28 16.5q28 2 46.5 8.5t32.5 18t26 27t29 35.5q8 10 15 19.5
t14 20.5q-5 7 -15 21.5t-22 30t-23 27t-18 12.5q-6 -2 -12.5 -4t-11.5 -7q5 14 19 29.5t31.5 26t36 13.5t32.5 -7t22.5 -26t14.5 -32l56 72t60 68q20 6 39.5 11t39.5 10q-45 -51 -87 -103.5t-76 -112.5q11 -17 18.5 -34.5t20.5 -34.5q5 -7 13 -12.5t16 -6.5q10 -1 28 -1.5
t37.5 0t38 1.5t28.5 2q19 2 39.5 15t34.5 25z" />
    <glyph glyph-name="y" unicode="y" horiz-adv-x="468" 
d="M418 314q-4 -73 -6 -148q-1 -50 1.5 -96t-0.5 -91t-15.5 -88.5t-43.5 -86.5q-28 -39 -63.5 -63t-72.5 -33.5t-71 -3.5t-58 28.5t-35 61.5t0 96q11 -26 25.5 -52t39.5 -43q21 -14 46 -13.5t49 10t44.5 25.5t32.5 35q10 16 15.5 32t8.5 32.5t3.5 34t1.5 35.5q1 39 -15 73
q-21 -24 -49 -41t-60 -22q-33 8 -46.5 33t-16.5 57t0.5 65t5.5 57q1 27 0.5 54t-5.5 54l1 3q35 -40 55.5 -89.5t23.5 -102.5q32 0 55.5 15.5t40 39.5t26 53.5t13.5 56.5q17 5 34 11.5t35 10.5z" />
    <glyph glyph-name="z" unicode="z" horiz-adv-x="503" 
d="M403 267q-11 -11 -22.5 -20.5t-22.5 -20.5q-10 11 -18.5 22t-19.5 21q11 11 23.5 21t23.5 21zM453 132q-4 -22 -14 -45.5t-25 -43.5t-35.5 -33.5t-45.5 -15.5q-17 -2 -33.5 -1.5t-33.5 0.5q-24 1 -44.5 0.5t-39.5 1.5t-38 9t-40 24q-7 16 -5 32.5t8.5 33t14.5 32.5t13 31
q5 14 10.5 27.5t13.5 26.5q-33 0 -56 -22.5t-39 -48.5q-3 -5 -6 -2.5t-8 2.5q1 22 4.5 47t12 47.5t23 41t37.5 28.5q11 5 26 9.5t30.5 7t30 0.5t25.5 -10q17 -13 13 -35q-6 -31 -20 -56t-24 -54q-7 -21 -17 -46q-7 -6 -3.5 -13.5t10.5 -11.5q1 -1 14.5 -1.5t32.5 -1t41 -0.5
h42h35t20 1q19 2 38 14t32 25z" />
    <glyph glyph-name="braceleft" unicode="{" 
d="M626 -14q-35 -24 -76 -34.5t-83 -8.5q-64 5 -120.5 35.5t-96.5 80.5q-14 17 -22.5 35t-18.5 38q-20 45 -30 92.5t-2 97.5q6 40 26.5 77.5t50 69.5t64 58t69.5 43q-26 -14 -44.5 -37t-29.5 -51q-18 -46 -15.5 -94.5t17.5 -96t38.5 -92.5t47.5 -84q7 -12 17.5 -28.5t22 -33
t23 -31.5t22.5 -24q30 -24 68.5 -29.5t71.5 17.5zM457 372q19 -8 36 -17.5t36 -17.5q17 11 35 20t35 20q-4 -20 -6.5 -39t-6.5 -39q16 -13 32 -25.5t33 -23.5q-20 -4 -40 -7t-40 -7q-8 -20 -15 -38.5t-16 -37.5q-7 20 -17 37t-19 35q-20 2 -41 2.5t-41 1.5q13 15 27 29
t27 29q-5 20 -9.5 39t-9.5 39z" />
    <glyph glyph-name="bar" unicode="|" 
d="M626 -14q-35 -24 -76 -34.5t-83 -8.5q-64 5 -120.5 35.5t-96.5 80.5q-14 17 -22.5 35t-18.5 38q-20 45 -30 92.5t-2 97.5q6 40 26.5 77.5t50 69.5t64 58t69.5 43q-26 -14 -44.5 -37t-29.5 -51q-18 -46 -15.5 -94.5t17.5 -96t38.5 -92.5t47.5 -84q7 -12 17.5 -28.5t22 -33
t23 -31.5t22.5 -24q30 -24 68.5 -29.5t71.5 17.5zM457 372q19 -8 36 -17.5t36 -17.5q17 11 35 20t35 20q-4 -20 -6.5 -39t-6.5 -39q16 -13 32 -25.5t33 -23.5q-20 -4 -40 -7t-40 -7q-8 -20 -15 -38.5t-16 -37.5q-7 20 -17 37t-19 35q-20 2 -41 2.5t-41 1.5q13 15 27 29
t27 29q-5 20 -9.5 39t-9.5 39z" />
    <glyph glyph-name="braceright" unicode="}" 
d="M150 527q35 25 76 35.5t84 7.5q63 -4 120 -34.5t96 -80.5q14 -17 23 -35t18 -38q20 -45 30 -92.5t2 -97.5q-6 -40 -26.5 -77.5t-50 -70t-64.5 -58.5t-69 -43q26 14 44.5 37.5t29.5 50.5q18 46 15.5 94.5t-17.5 96.5t-38.5 93t-47.5 84q-8 12 -18 28.5t-21 33t-23 31
t-23 23.5q-30 24 -68.5 29.5t-71.5 -17.5zM319 142q-18 8 -35.5 17.5t-36.5 17.5q-17 -11 -35 -20t-35 -20q5 20 7 39t6 39q-16 13 -32 25.5t-33 23.5q20 4 40 7t40 7q8 19 15 38t16 37q8 -19 17.5 -36t18.5 -35q21 -2 41.5 -2.5t40.5 -2.5q-13 -15 -27 -29t-27 -29
q5 -19 9.5 -38t9.5 -39z" />
    <glyph glyph-name="currency" unicode="&#xa4;" horiz-adv-x="531" 
d="M279 270q28 29 58.5 41.5t70.5 10.5q28 -1 44.5 -15.5t23 -36.5t4 -48t-11.5 -51t-23.5 -45.5t-32.5 -31.5q26 -6 39.5 -26.5t18.5 -45.5q7 -36 0 -74t-23 -71q-25 -52 -67.5 -90.5t-90.5 -60t-95 -24.5t-82.5 15.5t-52.5 61.5t-4 112q8 -25 23 -47.5t38 -36.5
q11 -6 27 -8.5t33.5 -1.5t34 3.5t29.5 5.5q34 7 65 22.5t55 38.5t39 53t17 67q1 19 -10 34.5t-32 13.5q-15 -2 -28.5 -9.5t-23.5 -18.5q0 11 -1 22.5t-2 22.5q7 20 21.5 37.5t30 35t27.5 35.5t13 39q1 10 -4.5 21t-16.5 12q-15 1 -29.5 -7.5t-28 -21t-24.5 -27t-18 -25.5
q-2 30 -6 59.5t-5 59.5z" />
    <glyph glyph-name="copyright" unicode="&#xa9;" horiz-adv-x="443" 
d="M218 753q-47 0 -80 -29.5t-53.5 -72.5t-30 -90.5t-9.5 -84.5t9.5 -85t30 -91t53.5 -72.5t80 -29.5t80 29.5t53.5 72.5t30 91t9.5 85t-9.5 84.5t-30 90.5t-53.5 72.5t-80 29.5zM218 731q42 0 70.5 -28t46.5 -68t26 -84t8 -75q0 -32 -8 -76t-26 -84t-46.5 -68t-70.5 -28
t-70.5 28t-46.5 68t-26 84t-8 76q0 31 8 75t26 84t46.5 68t70.5 28zM302 404q-10 -28 -25 -55.5t-44 -41.5q-7 -1 -14 -1h-14q-10 1 -24 9t-22 15q-36 35 -46.5 89t2 107.5t47.5 95t91 52.5q15 -3 23.5 -12.5t13 -22.5t6 -27.5t1.5 -26.5q-11 -14 -21.5 -27.5t-20.5 -27.5
q-2 10 -3 21t-3.5 21.5t-8 19.5t-15.5 14q-23 -12 -38 -42.5t-19 -65t4 -66t31 -46.5q11 -7 24 -6.5t26 1.5q10 0 16.5 0.5t11 3t9.5 7t12 12.5z" />
    <glyph glyph-name="guillemotleft" unicode="&#xab;" horiz-adv-x="398" 
d="M320 144q3 10 4.5 19.5t3.5 19.5q-20 26 -41 49.5t-46 44.5q23 28 48 53.5t51 51.5q1 6 3.5 11.5t4.5 10.5q-45 -33 -88 -66.5t-85 -70.5q38 -29 76 -57.5t69 -65.5zM203 140q3 19 3 40q-21 26 -45 50t-48 47q24 29 51 55.5t55 52.5q2 7 5.5 12t5.5 12q-46 -34 -92 -67.5
t-88 -73.5q39 -31 78.5 -61.5t74.5 -66.5z" />
    <glyph glyph-name="registered" unicode="&#xae;" horiz-adv-x="443" 
d="M290 672q1 -15 6 -33t8 -36.5t1 -35t-13 -28.5q-17 -18 -34.5 -16.5t-39.5 7.5q6 -17 10.5 -34.5t6.5 -35.5q4 -22 3 -55t-9.5 -64t-26.5 -53t-49 -22q-2 22 -7.5 43t-10.5 42q14 -1 21.5 11.5t10.5 32.5t2.5 44t-2 47t-3.5 41.5t-3 27.5q-1 13 -1 26t2 27q2 6 4 12.5
t5 11.5q9 15 21 11t25.5 -12t28.5 -11.5t29 14.5q13 16 15 38zM218 753q-47 0 -80 -29.5t-53.5 -72.5t-30 -90.5t-9.5 -84.5t9.5 -85t30 -91t53.5 -72.5t80 -29.5t80 29.5t53.5 72.5t30 91t9.5 85t-9.5 84.5t-30 90.5t-53.5 72.5t-80 29.5zM218 731q42 0 70.5 -28t46.5 -68
t26 -84t8 -75q0 -32 -8 -76t-26 -84t-46.5 -68t-70.5 -28t-70.5 28t-46.5 68t-26 84t-8 76q0 31 8 75t26 84t46.5 68t70.5 28z" />
    <glyph glyph-name="twosuperior" unicode="&#xb2;" horiz-adv-x="310" 
d="M259 482q2 -20 -5 -46.5t-22 -40.5q-20 -18 -50 -25t-58.5 -2t-50 23t-22.5 51q-1 23 17 41q-6 -18 2 -29.5t22 -18t31 -8t29 -0.5q18 1 33 3.5t28.5 7.5t25 15.5t20.5 28.5z" />
    <glyph glyph-name="acute" unicode="&#xb4;" horiz-adv-x="355" 
d="M52 458q42 -29 85 -25.5t78 28.5t57.5 65t23 84.5t-26 87.5t-88.5 74q14 -8 24 -20.5t16 -27.5q10 -24 8.5 -50.5t-10 -52t-21 -49.5t-24.5 -45q-8 -14 -21.5 -33.5t-24.5 -29.5q-17 -13 -37.5 -16t-38.5 10zM162 592q-7 8 -14.5 15.5t-14.5 15.5q3 11 5.5 21t4.5 21
l-19 -9.5l-19 -9.5q-9 6 -19 11t-19 11q2 -11 3.5 -21t3.5 -21q-8 -7 -17 -14t-18 -13q11 -2 21.5 -3.5t21.5 -3.5q4 -11 8 -21t9 -20q4 11 9 20t10 19z" />
    <glyph glyph-name="guillemotright" unicode="&#xbb;" horiz-adv-x="400" 
d="M350 261q-42 33 -81.5 67.5t-74.5 73.5q1 -6 -0.5 -12.5t0.5 -11.5q4 -9 16 -24t26 -31t27.5 -30.5t21.5 -22.5q-24 -26 -50 -50t-53 -47q-4 -10 -8 -19.5t-7 -20.5q46 32 92.5 62.5t90.5 65.5zM224 260q-40 32 -78.5 64.5t-68.5 74.5q0 -6 -2 -11.5t0 -11.5
q4 -11 14 -25.5t21.5 -29.5t23.5 -29t21 -22q-23 -24 -46 -47.5t-48 -46.5q-2 -10 -5.5 -18.5t-5.5 -18.5q44 31 88 59t86 62z" />
    <glyph glyph-name="Adieresis" unicode="&#xc4;" horiz-adv-x="543" 
d="M479 -1q-27 -5 -54 -8t-54 -5q4 55 5 109.5t-1 109.5q-17 -14 -35.5 -25t-35.5 -25q-11 11 -21 23t-22 23q-19 -48 -41 -94t-45 -92q-6 -11 -18 -19q-7 -4 -17 -6t-18 0q-20 3 -32 16q-11 12 -18 33.5t-11.5 45.5t-7 47.5t-3.5 39.5q13 -14 21 -21.5t15.5 -12t18 -6.5
t29.5 -3q18 -1 34 13q9 10 20.5 34t23 55.5t23 67.5t21.5 69.5t18.5 62t13.5 44.5q8 23 19 49.5t17 49.5q2 7 1 15t-6 14q-11 18 -33 26t-41 14q104 29 205 51q2 -87 12.5 -174t19 -173.5t10.5 -173.5t-13 -174zM373 229q-2 58 -10.5 115t-15.5 115q-21 -57 -38 -115
t-41 -115q14 11 26 22.5t26 22.5q13 -12 26.5 -22.5t26.5 -22.5zM487 740q-11 -9 -22.5 -17.5t-22.5 -17.5q-8 12 -18 22.5t-19 21.5q10 11 21.5 19t21.5 19q10 -12 19 -24t20 -23zM376 752q-12 -10 -22.5 -20.5t-22.5 -20.5q-8 11 -17.5 21.5t-19.5 21.5q11 12 23 22t23 21
q9 -11 17.5 -22.5t18.5 -22.5z" />
    <glyph glyph-name="Odieresis" unicode="&#xd6;" horiz-adv-x="526" 
d="M321 350l-43 -43q-11 11 -22 21.5t-23 20.5q11 11 22 21.5t21 22.5q11 -11 22.5 -21.5t22.5 -21.5zM288 547q11 14 27 24t35 8q48 -7 78 -50t41 -105.5t3 -135t-36.5 -136.5t-78 -110.5t-120.5 -58.5q-41 9 -71.5 32.5t-51.5 56t-33.5 71t-18.5 76.5q-4 25 -7 50.5
t-4 51.5q-2 55 11.5 117.5t43 117.5t75.5 94.5t108 47.5q24 3 46.5 -12t30.5 -37q-57 -10 -96.5 -44.5t-64 -82t-35 -102t-7.5 -105.5q2 -29 5.5 -58.5t14.5 -56.5q12 -29 32 -48.5t51 -25.5q33 6 55 28t35.5 52t19 63t5.5 62q0 17 -2.5 34.5t-4.5 34.5q-2 15 -5 34.5t-8 39
t-13 36.5t-20 28q-11 10 -19 11.5t-21 -2.5zM398 749q-11 -10 -22 -19.5t-22 -20.5q-10 11 -19 22t-19 22q11 11 22.5 21t22.5 21q11 -11 18.5 -23t18.5 -23zM286 754q-12 -10 -23 -20t-22 -21q-8 11 -18 20t-18 20l22.5 22.5t23.5 22.5q9 -11 17.5 -22t17.5 -22z" />
    <glyph glyph-name="Udieresis" unicode="&#xdc;" horiz-adv-x="605" 
d="M555 172q-11 -41 -22 -80t-39 -73q-7 -8 -21.5 -19t-24.5 -12q-12 -1 -31.5 -2.5t-38.5 0t-35 8.5t-22 23q-2 6 -3 14.5t-1.5 18t-0.5 18.5v16h-2q-10 -32 -37.5 -58t-59.5 -36t-62.5 0.5t-46.5 51.5q-8 21 -11 43q-1 11 -1.5 22t0.5 22q2 39 3.5 78t1.5 78
q-1 38 0.5 77.5t-3.5 77.5q-2 17 -18 27t-30 17q39 23 78 45l78 44q-3 -56 -2 -112t1.5 -112.5t0 -112.5t-6.5 -112q23 1 44 10t37.5 23.5t27 34.5t12.5 43q3 42 2 84t-3 84q0 21 -0.5 42t-0.5 42t2 42.5t1 41.5q-1 17 -16.5 27t-28.5 18q42 22 84.5 43t86.5 40
q-12 -98 -10.5 -196.5t0.5 -197.5q0 -32 -0.5 -65.5t-5.5 -65.5q-2 -10 -1 -17t7 -15q5 -6 12 -10.5t15 -3.5q18 1 30 3t21.5 6.5t18.5 12.5t21 22zM419 750q-14 -8 -24 -19.5t-24 -19.5q-8 11 -17.5 20.5t-17.5 20.5q11 12 23 22t23 21q8 -12 18 -22.5t19 -22.5zM307 753
q-12 -11 -23.5 -22t-24.5 -20q-8 11 -17.5 20.5t-17.5 20.5q13 11 24.5 22t24.5 22q9 -11 16.5 -22t17.5 -21z" />
    <glyph glyph-name="germandbls" unicode="&#xdf;" horiz-adv-x="370" 
d="M320 335q-17 -23 -31 -47.5t-31 -47.5q-19 18 -34.5 24t-41.5 8q-5 -9 -5 -21t3 -24t9 -23.5t13 -18.5q2 -3 5.5 -5t5.5 -6q-13 1 -26 -0.5t-26 -0.5l-18 -11q-4 2 -7 5l-6 6l3 3q-24 31 -25.5 67t15 66t49 47.5t76.5 12.5q41 -5 72 -34zM239 127q15 -45 -1 -83.5
t-52 -65.5q-21 -4 -39.5 1t-35.5 15t-32 23.5t-29 26.5q2 23 2 44q0 22 -1 45q29 -20 57.5 -41t63.5 -27q8 17 6.5 31.5t-9.5 30.5h70zM241 469q-63 0 -94 -8.5t-31 -18.5q0 -9 31 -17.5t94 -8.5t94 8.5t31 17.5q0 10 -31 18.5t-94 8.5z" />
    <glyph glyph-name="adieresis" unicode="&#xe4;" horiz-adv-x="764" 
d="M714 132q-8 -22 -21 -45.5t-31 -43t-40 -33t-47 -16.5q-35 -4 -71.5 -2.5t-71.5 -0.5q-11 0 -24 1t-26.5 4t-25.5 8.5t-20 13.5q-6 6 -10.5 16t-8.5 21.5t-6.5 22.5t-4.5 19h-2q-35 -44 -85 -72t-107 -28q-32 0 -46.5 21t-13.5 53t16 70.5t42.5 74.5t66.5 64t86 39
l26 -28t27 -28q20 14 39 28t39 27h4q-2 -11 -3.5 -38.5t-2 -58t1 -57t5.5 -34.5q13 -27 42 -37q6 -2 34 -2.5t61 -0.5q34 0 63.5 1t38.5 2q20 2 41 13.5t35 25.5zM303 236q-51 -13 -94 -44t-66 -80l7 -8l11 -3q51 14 84.5 52.5t57.5 82.5zM422 388q-14 -11 -27.5 -21
t-27.5 -21q-8 11 -16 21t-15 21q14 11 28.5 21t28.5 21q11 -21 29 -42zM309 388q-14 -11 -28 -21.5t-28 -21.5q-8 10 -14.5 20.5t-13.5 21.5q14 12 29.5 21.5t29.5 20.5q5 -11 11.5 -21t13.5 -20z" />
    <glyph glyph-name="odieresis" unicode="&#xf6;" horiz-adv-x="406" 
d="M255 330q22 1 40.5 -8t32.5 -26q28 -33 28 -75t-18 -82t-48 -74t-63 -51q-51 -27 -88.5 -20.5t-59 34t-27 70.5t8 89.5t47 90t88.5 71.5q7 -17 14.5 -33.5t18.5 -30.5q-22 -7 -39.5 -24.5t-29.5 -39.5t-17.5 -46t-4 -43t11 -31.5t28.5 -11.5q23 1 43 13.5t33.5 31.5
t20.5 41t4 41.5t-17 34t-41 18.5q9 15 16.5 31t17.5 30zM327 411q-11 -10 -22 -19.5t-22 -19.5q-9 11 -19.5 21.5t-19.5 21.5q11 11 23 21t23 21q11 -11 18.5 -23t18.5 -23zM217 417q-11 -11 -23.5 -21t-24.5 -21q-10 10 -18 20.5t-18 20.5q11 11 23.5 22t24.5 22
q9 -11 18 -21.5t18 -21.5z" />
    <glyph glyph-name="udieresis" unicode="&#xfc;" horiz-adv-x="666" 
d="M616 132q-6 -21 -18.5 -44.5t-29 -43.5t-37.5 -34t-45 -17q-11 -1 -22 -1h-22q-25 1 -48.5 -1t-48.5 4q-19 5 -36.5 15t-30.5 24t-21 32t-9 39h-2q-24 -40 -60.5 -71.5t-84.5 -36.5q-23 14 -32.5 39.5t-12.5 55t-2.5 59.5t-2.5 54q-2 18 -1.5 36t3.5 36q24 20 49 39.5
t51 38.5q-10 -27 -14 -55t-5 -56t0 -56.5t1 -56.5q35 3 56.5 22t35.5 45.5t24 57t21 56.5q16 8 32 14t31 15q-11 -48 -7.5 -97t3.5 -98q-6 -14 -1 -30t19 -24q2 -1 16 -1.5t33 -0.5h43t44 0.5t37 1t21 1.5q18 2 38.5 14.5t34.5 24.5zM344 387l-53 -42q-8 11 -15.5 21
t-14.5 21q13 11 26.5 21t26.5 21q6 -11 14 -21.5t16 -20.5zM233 386l-55 -43q-16 21 -29 41q14 12 28.5 22t28.5 21q5 -11 12 -21t15 -20z" />
    <glyph glyph-name="ydieresis" unicode="&#xff;" horiz-adv-x="272" 
d="M205 372q1 -15 6 -33t8 -36.5t1 -35t-13 -28.5q-18 -18 -35 -16.5t-39 7.5q5 -17 9.5 -34.5t7.5 -35.5q4 -22 3 -55t-9.5 -64t-26.5 -53t-49 -22q-3 22 -8 43l-10 42q14 -1 21.5 11.5t10.5 32.5t2.5 44t-2.5 47t-4 42t-3 27v26t2 27q1 6 3.5 12.5t5.5 11.5q9 15 20.5 11
t25.5 -12t28.5 -11.5t29.5 14.5q6 8 10 17.5t5 20.5z" />
    <glyph glyph-name="Scaron" unicode="&#x160;" horiz-adv-x="824" 
d="M736 -153q-54 -37 -115 -53t-127 -12q-96 6 -181.5 53t-145.5 122q-21 26 -34.5 53.5t-27.5 57.5q-32 69 -46.5 141t-2.5 147q9 60 40.5 116.5t75.5 106t97 88.5t105 65q-40 -22 -68 -57t-45 -77q-22 -56 -24 -111t9.5 -109t33.5 -107t47 -103q16 -32 32.5 -63.5
t35.5 -62.5q11 -19 26.5 -44t33 -50t35.5 -47.5t35 -35.5q22 -18 48.5 -29.5t54.5 -15t55.5 2.5t52.5 24zM480 431q28 -12 54.5 -26.5t54.5 -26.5q26 17 53 30.5t53 30.5q-6 -29 -10 -59t-9 -59q24 -20 48 -39t50 -36q-30 -5 -60.5 -10t-60.5 -11q-11 -29 -22 -57.5
t-25 -56.5q-11 29 -26 55t-29 53q-31 2 -62 3.5t-62 3.5q20 23 41 44t41 44q-8 29 -15 58.5t-14 58.5z" />
    <glyph glyph-name="Ydieresis" unicode="&#x178;" horiz-adv-x="370" 
d="M320 335q-17 -23 -31 -47.5t-31 -47.5q-19 18 -34.5 24t-41.5 8q-5 -10 -4.5 -23.5t5 -27.5t12 -26t16.5 -18q2 -5 5.5 -8t6.5 -6l-3 -2q17 -23 22.5 -48.5t0 -50t-20 -46.5t-36.5 -38q-21 -4 -39.5 1t-35.5 15t-32 23.5t-29 26.5q2 23 2 44q0 22 -1 45q29 -20 57.5 -41
t63.5 -27q9 18 7.5 32t-8 25.5t-15.5 21.5t-15 22h-2l-9 7l3 3q-24 31 -25.5 67t15 66t49 47.5t76.5 12.5q41 -5 72 -34z" />
    <glyph glyph-name="endash" unicode="&#x2013;" horiz-adv-x="536" 
d="M50 237l198 -2q14 0 42.5 -0.5t59.5 -0.5t57.5 0.5t37.5 2.5q9 2 21 8t17 13q0 6 -3 11q5 5 6 10q-100 1 -198 1.5t-198 -1.5q-9 -4 -18.5 -8t-15.5 -13q0 -4 2 -10q-2 -3 -4 -5t-4 -6z" />
    <glyph glyph-name="emdash" unicode="&#x2014;" horiz-adv-x="536" 
d="M50 237l198 -2q14 0 42.5 -0.5t59.5 -0.5t57.5 0.5t37.5 2.5q9 2 21 8t17 13q0 6 -3 11q5 5 6 10q-100 1 -198 1.5t-198 -1.5q-9 -4 -18.5 -8t-15.5 -13q0 -4 2 -10q-2 -3 -4 -5t-4 -6z" />
    <glyph glyph-name="quoteleft" unicode="&#x2018;" horiz-adv-x="210" 
d="M160 536v1q-5 12 -12 20.5t-14 19.5q-3 3 -7 4t-8 3q-5 -1 -8.5 -2t-7.5 -3l-11 -11l-5 6l-3 10q4 20 9 30.5t12.5 16.5t18.5 10.5t26 12.5q-19 1 -38 -6t-33 -20q-4 -4 -9.5 -10.5t-10 -14t-7.5 -15.5t-1 -14q6 -24 21.5 -43t26.5 -40q16 11 31 22.5t30 22.5z" />
    <glyph glyph-name="quoteright" unicode="&#x2019;" horiz-adv-x="210" 
d="M160 588q-8 18 -18.5 34.5t-21.5 33.5q-4 2 -6 6l-4 8l-60 -44q4 -9 13 -24t17 -20h1l10 -5q9 1 15.5 5t12.5 11q3 -4 4 -8t3 -8q-3 -33 -20.5 -45t-45.5 -24q16 -2 33.5 4t32.5 17.5t24.5 26.5t9.5 32z" />
    <glyph glyph-name="quotedblleft" unicode="&#x201c;" horiz-adv-x="418" 
d="M161 526v1q-2 5 -4 8.5t-4 8.5l-13 13t-12 15q-1 0 -5.5 1.5t-6.5 2.5q-3 -2 -6.5 -2.5t-6.5 -1.5q-3 -3 -6 -5.5t-6 -5.5q-4 3 -5 7.5t-3 8.5q1 15 10 26.5t21 19.5t26 14.5t26 11.5q-15 -2 -35 -7.5t-38 -16t-30.5 -25t-12.5 -33.5q5 -11 11 -23.5t14 -21.5
q2 -8 7.5 -18.5t10.5 -17.5q17 9 33.5 20.5t34.5 19.5zM368 529q-2 7 -5.5 12.5t-5.5 12.5l-10 10t-8 10l-11 3q-7 -2 -10 -3.5t-4.5 -3l-3.5 -3.5t-7 -5q-6 6 -8 16q3 31 22.5 44.5t45.5 23.5q-14 1 -32.5 -5t-35.5 -16.5t-27.5 -25.5t-7.5 -31q2 -11 10 -23.5t13 -23.5
q-1 -2 2 -13t5 -13l-1 -10z" />
    <glyph glyph-name="quotedblright" unicode="&#x201d;" horiz-adv-x="362" 
d="M159 579l-6 10v1q-10 18 -18 35t-13 37q-19 -9 -36.5 -20.5t-35.5 -22.5l1 -1l2 -9q6 -5 8 -16q8 -8 13 -12.5t16 -9.5q5 2 9 2q5 0 9 3l5 9q5 -7 10 -16q0 -11 -5.5 -20t-10.5 -18q-12 -10 -25.5 -17t-27.5 -12q10 -1 25 2.5t30 10t26.5 15.5t15.5 19l8 20v10zM312 581
q-4 11 -11 22.5t-13 22.5l-2 1q-2 5 -4.5 11t-6.5 10q0 5 -2.5 7.5t-4.5 6.5q-17 -10 -33 -20t-33 -21v-1q8 -19 18.5 -28.5t26.5 -20.5q7 -2 14 4t10 11q4 -3 5 -7t3 -9q0 -14 -8 -26t-20 -21t-26 -15t-26 -10q13 1 28.5 5.5t30 11t27 16t20.5 20.5q4 6 5 14.5t2 15.5z" />
    <glyph glyph-name="quotedblbase" unicode="&#x201e;" horiz-adv-x="362" 
d="M159 335l-6 10v1q-10 18 -18 35t-13 37q-19 -9 -36.5 -20.5t-35.5 -22.5l1 -1l2 -9q3 -3 5 -7.5t4 -9.5q10 -8 13.5 -12t14.5 -9q4 2 7 2q4 0 8 1q2 2 4 5.5t4 5.5q5 -7 10 -16q0 -11 -5.5 -20t-10.5 -18q-12 -10 -25.5 -17t-27.5 -12q10 -1 25 2.5t30 10t26.5 15.5
t15.5 19l8 20v10zM312 337q-4 11 -11 22.5t-13 22.5l-2 1q-2 5 -4.5 11t-6.5 10q0 5 -2.5 7.5t-4.5 6.5q-17 -10 -33 -20t-33 -21v-1q8 -19 18 -28.5t27 -20.5q2 -1 7 1t7 3q2 3 5 5.5t5 5.5q4 -3 5 -7t3 -9q0 -14 -8 -26t-20 -21t-26 -15t-26 -10q12 1 27.5 5.5t31 11.5
t28.5 16t19 20q4 7 5 14.5t2 15.5z" />
    <glyph glyph-name="daggerdbl" unicode="&#x2021;" horiz-adv-x="421" 
d="M371 192q-12 -30 -24.5 -66.5t-30.5 -67.5t-44.5 -52t-67.5 -21q-13 0 -25.5 0.5t-25.5 5.5q-26 10 -45.5 31.5t-26.5 48.5q-5 16 -6 32t0 33t4.5 33t8.5 32q13 45 24 90.5t22.5 91t23.5 90.5t28 89q-22 -3 -38.5 -15t-28.5 -27.5t-21 -33.5t-15.5 -34t-12 -27.5
t-11.5 -14.5q-3 -2 -9 -4q-1 16 3 50.5t10.5 71t15 69t17.5 45.5q15 24 42 41.5t55 21.5t52.5 -8.5t35.5 -49.5q3 -12 1 -35.5t-8 -54t-14 -64t-16.5 -64.5t-15 -57t-9.5 -40q-3 -12 -10 -39.5t-14.5 -57.5t-13 -55.5t-3.5 -32.5q3 -19 20 -20q29 -3 60.5 -0.5t57.5 16.5
q33 17 51 49h4z" />
    <glyph glyph-name="bullet" unicode="&#x2022;" horiz-adv-x="369" 
d="M319 280q-32 -35 -68 -66t-74 -60q-29 35 -61 66.5t-66 61.5q33 35 70 65t75 59q58 -69 124 -126zM274 278q-22 21 -43.5 42t-41.5 44q0 -12 -0.5 -24.5t1.5 -24.5q-20 -1 -40 -1q-19 0 -39 -1q25 -7 50 -13t49 -14q-20 -8 -38 -17.5t-38 -17.5q21 2 41.5 3t41.5 3
q-8 -19 -16 -37.5t-18 -36.5q51 45 91 95z" />
    <glyph glyph-name="ellipsis" unicode="&#x2026;" horiz-adv-x="624" 
d="M152 40q-12 -17 -29 -28l-34 -22q-8 14 -16.5 27.5t-22.5 22.5q17 20 40.5 30.5t47.5 19.5q-12 -13 -5 -27.5t19 -22.5zM363 40q-14 -20 -35.5 -30t-42.5 -21q5 16 -4 29.5t-22 21.5q16 18 36 29t41 22q-3 -16 6.5 -29t20.5 -22zM574 40q-17 -20 -42 -30.5t-49 -19.5
q13 11 7 27t-19 23q13 16 28.5 27.5t32.5 22.5q6 -16 17.5 -27.5t24.5 -22.5z" />
    <glyph glyph-name="guilsinglleft" unicode="&#x2039;" horiz-adv-x="589" 
d="M539 381q-2 -16 -9.5 -25t-18.5 -20l-10 -3q-12 5 -20 13.5t-19 11.5q-8 26 3 39.5t27 30.5q16 -5 27.5 -19t19.5 -28zM524 295q-20 -54 -25.5 -117.5t8.5 -119.5q3 -11 7.5 -23.5t9.5 -25.5t8.5 -25t3.5 -22q0 -38 -12.5 -72.5t-33.5 -64.5t-49 -54.5t-60 -42.5
q-22 -12 -41 -18.5t-38 -8.5t-39 -1t-44 4q-22 1 -44 11q-16 18 -34 34q-32 28 -53 55.5t-30.5 57.5t-7.5 64t16 75q8 24 22 45t34 37q3 -4 6 -7t6 -7q-8 -12 -13 -28.5t-7 -34t-2 -34.5q0 -18 2 -32l1 1q1 -23 11 -42t25.5 -34.5t34.5 -27t39 -20.5l-2 1q38 -11 78 -7
t77 20q9 4 21 10.5t24.5 14t23.5 15.5t17 16q11 13 18 37.5t8 40.5q1 26 -5 50.5t-12 49.5q-17 16 -24.5 38t-9.5 46t-0.5 48.5t4.5 45.5q1 8 1.5 17.5t2.5 17.5q7 10 16.5 14t19 4.5t20 -0.5t21.5 -1z" />
    <glyph glyph-name="guilsinglright" unicode="&#x203a;" horiz-adv-x="529" 
d="M276 361q-6 26 -8 54.5t-4 55.5q-2 32 -3.5 62.5t3.5 57.5t22 49.5t53 38.5q28 12 56.5 13t52.5 -22q25 -25 28 -61q2 -34 1 -67t-3 -67q-2 -35 -5.5 -73.5t-0.5 -73.5q2 -19 3.5 -34.5t-1.5 -35.5q-3 -17 -7 -33.5t-9 -33.5q-15 -44 -47 -83t-70 -65q-32 -22 -67 -36.5
t-69.5 -16t-66.5 13t-57 52.5q-3 5 -8 13t-9.5 16.5t-7 17t-0.5 14.5q1 8 9 16q11 12 26 8.5t29.5 -14t27 -23.5t20.5 -21q53 8 102 29t88 57q8 46 11.5 92.5t6 93.5t5.5 93.5t10 93.5q-36 -11 -52.5 -38t-24.5 -56.5t-14 -55t-20 -31.5zM240 214q-11 -11 -22 -21t-22 -21
q-12 9 -21.5 21t-21.5 22q12 10 22 21.5t23 20.5q11 -11 20.5 -22.5t21.5 -20.5z" />
    <glyph glyph-name="HT" unicode="&#xe000;" horiz-adv-x="256" 
 />
    <glyph glyph-name="Omega" unicode="&#xe002;" horiz-adv-x="531" 
d="M279 270q28 29 58.5 41.5t70.5 10.5q28 -1 44.5 -15.5t23 -36.5t4 -48t-11.5 -51t-23.5 -45.5t-32.5 -31.5q26 -6 39.5 -26.5t18.5 -45.5q7 -36 0 -74t-23 -71q-25 -52 -67.5 -90.5t-90.5 -60t-95 -24.5t-82.5 15.5t-52.5 61.5t-4 112q8 -25 23 -47.5t38 -36.5
q11 -6 27 -8.5t33.5 -1.5t34 3.5t29.5 5.5q34 7 65 22.5t55 38.5t39 53t17 67q1 19 -10 34.5t-32 13.5q-15 -2 -28.5 -9.5t-23.5 -18.5q0 11 -1 22.5t-2 22.5q7 20 21.5 37.5t30 35t27.5 35.5t13 39q1 10 -4.5 21t-16.5 12q-15 1 -29.5 -7.5t-28 -21t-24.5 -27t-18 -25.5
q-2 30 -6 59.5t-5 59.5z" />
    <glyph glyph-name="nonbreakingspace" unicode="&#xe003;" horiz-adv-x="256" 
 />
    </font>
</defs>
</svg>
