<?xml version="1.0" standalone="no"?>
<!DOCTYPE svg PUBLIC "-//W3C//DTD SVG 1.1//EN" "http://www.w3.org/Graphics/SVG/1.1/DTD/svg11.dtd" >
<svg xmlns="http://www.w3.org/2000/svg" xmlns:xlink="http://www.w3.org/1999/xlink" version="1.1">
<metadata>
Created by FontForge 20150318 at Mon Oct 26 13:03:37 2015
 By uniteet7
ALHAMBRA computer fonts v1.0 (c)2006 Harold Lohner  HLohner@aol.com  www.haroldsfonts.com
</metadata>
<defs>
<font id="alhambra" horiz-adv-x="600" >
  <font-face 
    font-family="alhambra"
    font-weight="400"
    font-stretch="normal"
    units-per-em="1000"
    panose-1="0 0 4 0 0 0 0 0 0 0"
    ascent="800"
    descent="-200"
    x-height="390"
    cap-height="742"
    bbox="-150 -437 1388 1075"
    underline-thickness="20"
    underline-position="-123"
    unicode-range="U+0020-2202"
  />
<missing-glyph horiz-adv-x="500" 
d="M63 0v1000h375v-1000h-375zM125 63h250v875h-250v-875z" />
    <glyph glyph-name=".notdef" horiz-adv-x="500" 
d="M63 0v1000h375v-1000h-375zM125 63h250v875h-250v-875z" />
    <glyph glyph-name=".null" horiz-adv-x="0" 
 />
    <glyph glyph-name="nonmarkingreturn" 
 />
    <glyph glyph-name="space" unicode=" " 
 />
    <glyph glyph-name="exclam" unicode="!" horiz-adv-x="360" 
d="M341 238h-151v463v0q0 62 44 106t106 44zM365 99q0 -41 -29.5 -70.5t-70.5 -29.5t-70.5 29.5t-29.5 70.5q0 42 29.5 71t70.5 29t70.5 -29t29.5 -71z" />
    <glyph glyph-name="quotedbl" unicode="&#x22;" horiz-adv-x="494" 
d="M495 749l-100 -1v317l100 1v-317zM285 749l-100 -1v317l100 1v-317z" />
    <glyph glyph-name="numbersign" unicode="#" 
d="M576 264h-126v-125h-105v125h-90v-125h-105v125h-126v105h126v90h-126v105h126v126h105v-126h90v126h105v-126h126v-105h-126v-90h126v-105zM345 369v90h-90v-90h90z" />
    <glyph glyph-name="dollar" unicode="$" horiz-adv-x="504" 
d="M474 309q0 -64 -36 -116.5t-94 -75.5v-118h-150v116q-60 23 -97 76t-37 118h150q0 -24 16.5 -40.5t40.5 -16.5t40.5 16.5t16.5 40.5t-16.5 40.5t-40.5 16.5q-86 0 -146.5 60.5t-60.5 146.5q0 65 37 118t97 76v84h150v-86q58 -23 94 -75.5t36 -116.5h-150q0 24 -16.5 40.5
t-40.5 16.5t-40.5 -16.5t-16.5 -40.5t16.5 -40.5t40.5 -16.5q86 0 146.5 -60.5t60.5 -146.5z" />
    <glyph glyph-name="percent" unicode="%" horiz-adv-x="575" 
d="M260 752q0 -42 -29.5 -71t-70.5 -29t-70.5 29t-29.5 71q0 41 29.5 70.5t70.5 29.5t70.5 -29.5t29.5 -70.5zM517 813l-301 -828l-141 52l301 828zM545 99q0 -41 -29.5 -70.5t-70.5 -29.5t-70.5 29.5t-29.5 70.5q0 42 29.5 71t70.5 29t70.5 -29t29.5 -71z" />
    <glyph glyph-name="ampersand" unicode="&#x26;" horiz-adv-x="796" 
d="M704 399v-524q0 -61 -43 -105.5t-105 -44.5v274h-193q-83 0 -140.5 59.5t-57.5 142.5q0 73 48.5 129t121.5 67q-9 23 -9 42v153q0 31 22 53t53 22h103q62 0 121 21q79 28 79 79v-250h-228v-69q0 -2 6 -12q24 -37 92 -37h130zM555 150v100l-4 1h-185q-21 0 -36 -15
t-15 -35q0 -21 15 -36t36 -15h189z" />
    <glyph glyph-name="quotesingle" unicode="'" horiz-adv-x="284" 
d="M284 749l-100 -1v317l100 1v-317z" />
    <glyph glyph-name="parenleft" unicode="(" horiz-adv-x="418" 
d="M343 851q-62 -78 -93 -216q-25 -111 -25 -236q0 -189 114 -400h-165q-99 246 -99 400q0 267 92 452h176z" />
    <glyph glyph-name="parenright" unicode=")" horiz-adv-x="358" 
d="M358 399q0 -154 -99 -400h-165q114 211 114 400q0 125 -25 236q-31 138 -93 216h176q92 -185 92 -452z" />
    <glyph glyph-name="asterisk" unicode="*" horiz-adv-x="657" 
d="M590 360q-22 -31 -60 -31q-25 0 -44 14q-31 23 -31 61q0 24 14 44q23 31 61 31q24 0 44 -14q31 -23 31 -61q0 -24 -15 -44zM413 580q15 -20 15 -44q0 -38 -31 -61q-20 -14 -44 -14q-38 0 -61 31q-14 19 -14 44q0 38 31 61q19 14 44 14q38 0 60 -31zM426 349
q0 -31 -22 -53t-53 -22t-53 22t-22 53t22 53t53 22t53 -22t22 -53zM459 121q-31 0 -53 21.5t-22 53.5q0 30 21.5 52.5t53.5 22.5q30 0 52.5 -22t22.5 -53t-22 -53t-53 -22zM248 408q0 -31 -22.5 -53t-52.5 -22q-32 0 -54 22t-22 53t22.5 53t53.5 22t53 -22t22 -53zM313 199
q0 -31 -22 -53t-53 -22t-53 22t-22 53t22 53t53 22t53 -22t22 -53z" />
    <glyph glyph-name="plus" unicode="+" 
d="M564 349h-200v-201h-128v201h-200v127h200v201h128v-201h200v-127z" />
    <glyph glyph-name="comma" unicode="," horiz-adv-x="360" 
d="M371 75q0 -82 -66 -142q-55 -50 -142 -74v94q58 16 82 43q-85 13 -85 96q0 44 28.5 75t71.5 31q50 0 80.5 -36.5t30.5 -86.5z" />
    <glyph glyph-name="hyphen" unicode="-" horiz-adv-x="364" 
d="M439 399l-87 -150h-202l87 150h202z" />
    <glyph glyph-name="hyphen" unicode="&#x2010;" horiz-adv-x="364" 
d="M439 399l-87 -150h-202l87 150h202z" />
    <glyph glyph-name="period" unicode="." horiz-adv-x="360" 
d="M365 99q0 -41 -29.5 -70.5t-70.5 -29.5t-70.5 29.5t-29.5 70.5q0 42 29.5 71t70.5 29t70.5 -29t29.5 -71z" />
    <glyph glyph-name="slash" unicode="/" horiz-adv-x="442" 
d="M517 813l-301 -828l-141 52l301 828z" />
    <glyph glyph-name="zero" unicode="0" 
d="M552 323q0 -128 -54 -217q-64 -108 -184 -108q-134 0 -204 94q-62 84 -62 224q0 180 43 319q64 208 205 208q146 0 212 -200q44 -134 44 -320zM402 323q0 102 -18 206q-29 164 -88 164q-52 0 -80 -171q-18 -114 -18 -206q0 -78 20 -116q27 -52 96 -52q50 0 73 68
q15 46 15 107z" />
    <glyph glyph-name="one" unicode="1" 
d="M375 145v0q-2 -61 -45.5 -104t-104.5 -43v852h150v-705z" />
    <glyph glyph-name="two" unicode="2" 
d="M519 75q0 -31 -22.5 -53t-52.5 -22h-288q-30 0 -52.5 22t-22.5 53q0 19 10 36l271 497q4 7 4 21q0 28 -20 47t-48 19h-141q-31 1 -53 23t-22 52v75h214v0h4q88 0 151.5 -63.5t63.5 -152.5q0 -52 -18 -86l-214 -393h235z" />
    <glyph glyph-name="three" unicode="3" 
d="M519 73q0 -31 -22 -53t-53 -22h-287v1q-31 1 -52.5 23t-21.5 52v75h117q78 -1 118 -1l-137 254q-9 17 -9 36q0 20 10 38l131 222h-155v0q-30 0 -52 22t-22 53v75h360q31 0 53 -22.5t22 -52.5q0 -21 -10 -38l-176 -299l177 -327q9 -17 9 -36z" />
    <glyph glyph-name="four" unicode="4" 
d="M535 -2h-150v140h-245q-31 0 -53 22.5t-22 52.5q0 20 10 38l320 559q21 38 65 38q31 0 53 -22t22 -53v-775zM385 288v203l-116 -203h116z" />
    <glyph glyph-name="five" unicode="5" 
d="M553 848q0 -50 -38 -96q-45 -54 -114 -54h-204v-184h96q106 0 182 -75.5t76 -182.5q0 -106 -76 -182t-182 -76h-169q-31 0 -53 22t-22 53v75h244q44 0 76 32t32 76q0 45 -32 76.5t-76 31.5h-171q-31 0 -53 22t-22 53v333q0 32 22 54t53 22h431z" />
    <glyph glyph-name="six" unicode="6" 
d="M558 258q0 -106 -75.5 -182t-182.5 -76t-182.5 76t-75.5 182v9q1 6 1 9l-1 427h1q1 61 45 104t105 43v-357q51 23 107 23q107 0 182.5 -75.5t75.5 -182.5zM408 258q0 45 -31.5 76.5t-76.5 31.5t-76.5 -31.5t-31.5 -76.5q0 -44 31.5 -76t76.5 -32t76.5 32t31.5 76z" />
    <glyph glyph-name="seven" unicode="7" 
d="M546 848l-198 -746v0l3 8q-13 -50 -54 -81.5t-92 -31.5q-19 0 -37 5q47 184 183 696h-147q-62 0 -106 44t-44 106h492z" />
    <glyph glyph-name="eight" unicode="8" 
d="M550 249q0 -104 -73.5 -177t-176.5 -73t-176.5 73t-73.5 177q0 102 72 174q-72 73 -72 175q0 103 73.5 176.5t176.5 73.5t176.5 -73.5t73.5 -176.5q0 -102 -72 -175q72 -72 72 -174zM400 598q0 41 -29.5 70.5t-70.5 29.5t-70.5 -29.5t-29.5 -70.5t29.5 -70.5t70.5 -29.5
t70.5 29.5t29.5 70.5zM400 249q0 41 -29.5 70t-70.5 29t-70.5 -29t-29.5 -70q0 -42 29.5 -71t70.5 -29t70.5 29t29.5 71z" />
    <glyph glyph-name="nine" unicode="9" 
d="M558 589v-9q-1 -6 -1 -9l1 -427h-1q-1 -61 -45 -104t-105 -43v357q-51 -23 -107 -23q-107 0 -182.5 75.5t-75.5 182.5q0 106 75.5 182t182.5 76t182.5 -76t75.5 -182zM408 589q0 44 -31.5 76t-76.5 32t-76.5 -32t-31.5 -76q0 -45 31.5 -76.5t76.5 -31.5t76.5 31.5
t31.5 76.5z" />
    <glyph glyph-name="colon" unicode=":" horiz-adv-x="360" 
d="M365 399q0 -41 -29.5 -70.5t-70.5 -29.5t-70.5 29.5t-29.5 70.5q0 42 29.5 71t70.5 29t70.5 -29t29.5 -71zM365 99q0 -41 -29.5 -70.5t-70.5 -29.5t-70.5 29.5t-29.5 70.5q0 42 29.5 71t70.5 29t70.5 -29t29.5 -71z" />
    <glyph glyph-name="semicolon" unicode=";" horiz-adv-x="360" 
d="M365 399q0 -41 -29.5 -70.5t-70.5 -29.5t-70.5 29.5t-29.5 70.5q0 42 29.5 71t70.5 29t70.5 -29t29.5 -71zM371 75q0 -82 -66 -142q-55 -50 -142 -74v94q58 16 82 43q-85 14 -85 96q0 44 28.5 75t71.5 31q50 0 80.5 -36.5t30.5 -86.5z" />
    <glyph glyph-name="equal" unicode="=" 
d="M549 469h-498v127h498v-127zM549 229h-498v127h498v-127z" />
    <glyph glyph-name="greater" unicode="&#x3e;" 
d="M552 323q0 -127 -54 -217q-64 -108 -184 -108q-134 0 -204 95q-62 84 -62 223q0 182 44 322q64 205 204 205q146 0 212 -199q44 -135 44 -321zM354 461l86 -86q-15 261 -86 347v-261zM432 239l-78 77v-208q54 30 78 131zM252 316l-87 -86q19 -94 87 -121v207zM161 370
l91 91v267q-68 -83 -91 -358z" />
    <glyph glyph-name="question" unicode="?" horiz-adv-x="611" 
d="M640 565q0 -87 -91 -142q-78 -47 -169 -47h-44v-139h-151q0 28 1 147q1 93 1 142h193q93 0 110 49l-1 50h-228v250q0 -42 59 -71t141 -29h103q31 0 53 -22t22 -53zM365 99q0 -41 -29.5 -70.5t-70.5 -29.5t-70.5 29.5t-29.5 70.5q0 42 29.5 71t70.5 29t70.5 -29t29.5 -71z
" />
    <glyph glyph-name="at" unicode="@" horiz-adv-x="1271" 
d="M1196 288q0 -130 -57 -247l-21 -42h-724l-1 150q0 116 86 190q70 60 140 60h71q82 0 141 29.5t59 70.5l-1 -350h133q24 67 24 139q0 170 -120.5 290.5t-289.5 120.5q-170 0 -290.5 -120.5t-120.5 -290.5q0 -104 49 -195t137 -148l-75 -131q-123 78 -192 203.5t-69 270.5
q0 232 164.5 396.5t396.5 164.5q231 0 395.5 -164.5t164.5 -396.5zM739 249h-118q-60 -3 -76 -100h194v100z" />
    <glyph glyph-name="A" unicode="A" horiz-adv-x="675" 
d="M675 -1h-675l87 150h95q12 100 67 170q64 80 158 80h67q62 0 121 21q79 28 79 79zM526 149v50q-1 32 -1 50h-116q-30 0 -52 -37q-17 -28 -23 -63h192z" />
    <glyph glyph-name="B" unicode="B" horiz-adv-x="780" 
d="M615 667q0 -31 -22.5 -53t-52.5 -22q-31 0 -53 22t-22 53t22 53t53 22q30 0 52.5 -22t22.5 -53zM780 75q0 -31 -22.5 -53.5t-52.5 -22.5h-705l87 150h117v552q0 38 30 84q44 66 122 66l-1 -504q45 52 113 52h235q31 0 53 -22t22 -52zM629 149v100h-274l-1 -100h275z" />
    <glyph glyph-name="C" unicode="C" horiz-adv-x="746" 
d="M498 667q0 -31 -22 -53t-53 -22t-53 22t-22 53t22 53t53 22t53 -22t22 -53zM746 -1h-306q-93 0 -167 44q-87 50 -92 136q-1 10 -1 145q0 77 113 77q13 0 35 -1t30 -1q62 0 121 21q79 28 79 79v-250h-228v-51q0 -24 46 -38q35 -11 64 -11h106q82 0 141 29.5t59 70.5v-250z
" />
    <glyph glyph-name="D" unicode="D" horiz-adv-x="799" 
d="M539 667q0 -31 -22.5 -53t-52.5 -22q-31 0 -53 22t-22 53t22 53t53 22q30 0 52.5 -22t22.5 -53zM799 701v-627q0 -30 -22 -52.5t-53 -22.5h-724l87 150h137v176q0 30 22 52t53 22h250v0q60 -6 99 -51l1 503q58 0 104 -46t46 -104zM649 149v100h-276v-100h276z" />
    <glyph glyph-name="E" unicode="E" horiz-adv-x="791" 
d="M791 -1h-496q-26 0 -44.5 -18t-18.5 -44q0 -25 18.5 -42.5t44.5 -17.5h351v-77q0 -31 -22 -53t-53 -22h-276q-88 0 -150.5 62.5t-62.5 149.5q0 32 10 62h-92l87 150h182q-8 23 -8 40l1 135q0 31 22 53t53 22h132q54 0 105 23q65 29 65 76l1 -249h-229v-51q0 -24 47 -38
q34 -11 63 -11h270v-150z" />
    <glyph glyph-name="F" unicode="F" horiz-adv-x="767" 
d="M549 667q0 -31 -22 -53t-53 -22t-53 22t-22 53t22 53t53 22t53 -22t22 -53zM767 0h-384q-94 0 -94 -63l-1 -374h-75q-31 0 -53 22t-22 53h1v298q0 33 9 63h-148l87 150h171q-9 30 -9 61l1 115q0 76 112 76q12 0 33 -1t29 -1q62 0 120 21q80 28 80 79v-250h-225v-39
q0 -22 15 -40.5t37 -21.5h94h222v-148z" />
    <glyph glyph-name="G" unicode="G" horiz-adv-x="643" 
d="M636 860q0 -30 -22 -52.5t-53 -22.5t-53 22.5t-22 52.5q0 31 22 53t53 22t53 -22t22 -53zM636 668q0 -31 -22 -53t-53 -22t-53 22t-22 53t22 53t53 22t53 -22t22 -53zM643 499l-1 -529q0 -122 -83 -196q-79 -71 -202 -71q-109 0 -184 56q-83 62 -83 167q0 122 75 141
q0 -91 42 -151q48 -69 135 -69q32 0 75 61.5t75 61.5v173h-149q-52 0 -89 37.5t-37 89.5q0 53 37 91t89 38h100q62 0 120 21q80 28 80 79zM492 236v69h-149q-13 0 -22.5 -10.5t-9.5 -24.5q0 -13 9.5 -23t22.5 -10v-1h149z" />
    <glyph glyph-name="H" unicode="H" horiz-adv-x="778" 
d="M708 667q0 -31 -22 -53t-53 -22t-53 22t-22 53t22 53t53 22t53 -22t22 -53zM778 324v-325h-150v250h-273l-1 -250h-354l87 150h118v552h-1q0 61 44.5 105.5t105.5 44.5l1 -503q45 51 113 51h235q31 0 53 -22t22 -53z" />
    <glyph glyph-name="I" unicode="I" horiz-adv-x="475" 
d="M333 667q0 -31 -22 -53t-53 -22q-30 0 -52.5 22t-22.5 53t22.5 53t52.5 22q31 0 53 -22t22 -53zM610 66q0 -91 -54 -153t-144 -62q-72 0 -127 40t-81 108h-204l87 150h96v325q62 0 106 -44t44 -106v-217q-2 -43 24 -75q27 -35 70 -35q63 0 93 78q21 56 21 132
q69 -20 69 -141z" />
    <glyph glyph-name="J" unicode="J" horiz-adv-x="591" 
d="M591 848l-1 -892q0 -88 -62 -150t-150 -62t-150.5 62t-62.5 150v193h150v-193q0 -26 18.5 -44t44.5 -18t44 18t18 44v583q-1 131 -1 162q0 -4 0 -3q0 61 45 105.5t107 44.5z" />
    <glyph glyph-name="K" unicode="K" horiz-adv-x="690" 
d="M736 -43q-38 -15 -79 -15q-52 0 -96 33q-35 25 -71 76l-58 86l-94 -138h-338l87 150h118l1 702q62 0 106 -44.5t44 -105.5h-1l1 -443q28 43 56 85q35 50 68 74q43 31 95 31q40 0 79 -15v-160h-1q-29 44 -78 44q-18 0 -37 -24q-2 -2 -27 -39l105 -151q21 -30 41 -30
q49 0 78 45l1 -1v-160z" />
    <glyph glyph-name="L" unicode="L" horiz-adv-x="386" 
d="M386 854q0 -124 0 -115v-170q-1 -508 -1 -495q0 -28 -19 -49.5t-47 -24.5v-1h-319l87 150h148l1 555q0 62 44 106t106 44z" />
    <glyph glyph-name="M" unicode="M" horiz-adv-x="958" 
d="M958 324v-325h-150v250h-162v-250h-219l1 150h68v100h-162v-249l-334 -1l87 150h97v217l150 86v-116q45 63 122 63h115q28 0 49.5 -19t24.5 -48q45 67 125 67h113q31 0 53 -22t22 -53zM615 -200q0 -31 -22 -53t-53 -22t-53 22t-22 53t22 53t53 22t53 -22t22 -53z
M401 -200q0 -31 -22.5 -53t-52.5 -22q-31 0 -53 22t-22 53t22 53t53 22q30 0 52.5 -22t22.5 -53z" />
    <glyph glyph-name="N" unicode="N" horiz-adv-x="668" 
d="M668 324v-325h-151v250h-198v-250h-319l87 150h82v217l150 86v-118q45 65 124 65h150q31 0 53 -22t22 -53z" />
    <glyph glyph-name="O" unicode="O" horiz-adv-x="662" 
d="M708 88q0 -106 -75.5 -181.5t-182.5 -75.5q-82 0 -148 47t-94 121h-208l87 150h112q27 120 167 183q38 18 61 57.5t23 83.5q0 -43 22.5 -83t59.5 -57q176 -81 176 -245zM558 88q0 45 -31.5 76.5t-76.5 31.5q-44 0 -76 -31.5t-32 -76.5q0 -44 32 -75.5t76 -31.5
q45 0 76.5 31.5t31.5 75.5z" />
    <glyph glyph-name="P" unicode="P" horiz-adv-x="647" 
d="M513 892q0 -31 -22 -53t-53 -22t-53 22t-22 53t22 53t53 22t53 -22t22 -53zM626 742q0 -31 -22 -53t-53 -22t-53 22t-22 53t22 53t53 22t53 -22t22 -53zM401 742q0 -31 -22 -53t-53 -22t-53 22t-22 53t22 53t53 22t53 -22t22 -53zM692 320q0 -53 -37.5 -90.5t-90.5 -37.5
v0h-213v-193h-351l87 150h114l-1 400q0 -51 79 -80q59 -20 121 -20h165q52 0 89.5 -38t37.5 -91zM600 320q0 14 -10.5 24.5t-24.5 10.5h-215v-69l215 -1q14 0 24.5 10t10.5 25z" />
    <glyph glyph-name="Q" unicode="Q" horiz-adv-x="852" 
d="M561 892q0 -31 -22 -53t-53 -22t-53 22t-22 53t22 53t53 22t53 -22t22 -53zM674 742q0 -31 -22 -53t-53 -22t-53 22t-22 53t22 53t53 22t53 -22t22 -53zM449 742q0 -31 -22 -53t-53 -22t-53 22t-22 53t22 53t53 22t53 -22t22 -53zM965 66q0 -91 -54 -153t-143 -62
q-73 0 -127.5 40t-81.5 108h-559l87 150h452v43h-214v0q-53 0 -90.5 37.5t-37.5 90.5q0 52 37.5 90t89.5 38l165 1q62 0 121 21q79 28 79 79v-454q0 -39 27.5 -68.5t66.5 -29.5q62 0 92 78q22 56 22 132q68 -20 68 -141zM539 286v69h-215q-14 0 -24.5 -10.5t-10.5 -24.5
q0 -15 10.5 -25.5t24.5 -10.5v2h215z" />
    <glyph glyph-name="R" unicode="R" horiz-adv-x="623" 
d="M623 150l-1 -150h-148q-2 16 -2 37q0 91 -7 127q-16 82 -73 85h-24h-74v-249l-294 -1l87 150h59l-1 350q0 -50 71 -78q54 -22 114 -22h70q46 0 91 -24q95 -52 124 -182q8 -33 8 -43z" />
    <glyph glyph-name="S" unicode="S" horiz-adv-x="770" 
d="M860 638l-348 -193q-18 -11 -18 -27q0 -19 21 -19h68q73 0 117 -44t44 -117v-239h-744l87 150h509v101h-401v107l665 325v-44z" />
    <glyph glyph-name="T" unicode="T" horiz-adv-x="559" 
d="M602 -40q0 -88 -62.5 -150t-150.5 -62q-87 0 -148.5 62t-61.5 150v39h-179l87 150h92l1 705q62 0 105.5 -43.5t43.5 -106.5h-1v-155h131l87 -150h-218l-2 -439q0 -26 18.5 -44t44.5 -18t44.5 18t18.5 44v189l150 -150v-39z" />
    <glyph glyph-name="U" unicode="U" horiz-adv-x="678" 
d="M678 73q0 -31 -22 -53t-53 -22l-603 1l87 150h98v104q1 60 45 103t104 43l1 -249h193v99q0 62 44 106t106 44v-326z" />
    <glyph glyph-name="V" unicode="V" horiz-adv-x="671" 
d="M378 667q0 -31 -22 -53t-53 -22t-53 22t-22 53t22 53t53 22t53 -22t22 -53zM671 74q0 -31 -22 -53t-53 -22h-44v-93l-65 93l-487 -1l87 151h294l-100 142q-19 27 -40 27q-48 0 -77 -44h-1v160q38 15 78 15q89 0 150 -86l130 -184v70q0 62 44 106t106 44v-325z" />
    <glyph glyph-name="W" unicode="W" horiz-adv-x="805" 
d="M595 742q0 -31 -22 -53t-53 -22t-53 22t-22 53t22 53t53 22t53 -22t22 -53zM708 592q0 -31 -22 -53t-53 -22t-53 22t-22 53t22 53t53 22t53 -22t22 -53zM483 592q0 -31 -22 -53t-53 -22t-53 22t-22 53t22 53t53 22t53 -22t22 -53zM805 249v0v-174q0 -32 -22 -54t-53 -22
l-730 -1l87 151h110v400q74 0 151 -146l-1 -254h81l1 325q62 0 106 -44t44 -106l-1 1v-176h77v250q62 0 106 -44t44 -106z" />
    <glyph glyph-name="X" unicode="X" horiz-adv-x="612" 
d="M680 237q-26 22 -56 22q-21 0 -40 -27q8 11 -103 -146l87 -122v-227l-167 236l-168 -236v227l26 36h-269l87 149h199l-58 83q-20 27 -40 27q-31 0 -57 -22v145q28 8 57 8q88 0 149 -87l74 -103l73 103q62 87 150 87q28 0 56 -8v-145z" />
    <glyph glyph-name="Y" unicode="Y" horiz-adv-x="693" 
d="M693 399q0 6 2 -235q1 -145 -2 -232t-64 -149t-149 -62t-150 62t-62 150h150q0 -26 18 -44t44 -18t44.5 18t18.5 44v67h-543l87 149h114q-1 104 0 104q1 61 45 103.5t105 42.5v-250h192v103q1 61 45 104t105 43z" />
    <glyph glyph-name="Z" unicode="Z" horiz-adv-x="804" 
d="M879 149l-86 -149l-482 -1q-73 0 -110 33t-37 88q0 94 74 123l250 95q24 9 23 25q0 11 -19 22l-446 253v44l661 -325l1 -99l-299 -109h470z" />
    <glyph glyph-name="bracketleft" unicode="[" horiz-adv-x="450" 
d="M75 851zM375 0l-300 -1v852h300q0 -62 -44 -105.5t-106 -43.5v-553q62 0 106 -43.5t44 -105.5z" />
    <glyph glyph-name="backslash" unicode="\" horiz-adv-x="1438" 
d="M1388 306q0 -145 -54 -290l-11 -7l-2 -29l-66 -108q-29 -17 -50 -39q-29 -29 -35 -34q-40 -29 -119 -84l-7 1q-190 -99 -339 -99q-18 0 -101 18q-79 18 -83 17l-37 21l-10 -1q-6 5 -16 12l-76 38q-46 24 -71 46q-12 10 -67.5 69.5t-60.5 67.5q-11 16 -26 50
q-11 26 -23 52l-11 10q-73 147 -73 240l14 121q11 94 42 167q25 56 75.5 125t101.5 137q63 41 107 67l-9 -19l57 30q13 -2 37 12q17 11 33 21q20 7 60 22l27 1l31 15q212 0 282 -18q31 -8 102 -40q38 -17 144 -106t123 -120q14 -32 44 -97q34 -72 45 -103q21 -57 21 -111
l-5 -18zM529 -326v5l6 3l1 -8l-7 -2v2zM834 836l-1 9l-16 8l-2 5l17 11l-15 2l-1 9l15 15l-34 -7l-7 4l-6 20l-24 -10l-10 8v12l-23 -4l-3 9l-15 -10l-13 7v10l-19 -3l-11 8l-3 13l-16 -17q-63 -2 -142 -33q-66 -30 -133 -60l1 -4h-6l-13 -14l19 -8h12l-7 -3v-5
q24 -11 66 -20q56 -12 68 -16l41 3l13 -5q32 1 95 7q29 10 93 20l4 5l33 2l24 13l-1 13zM947 519l-20 9l-29 -4l-8 -6l8 -3l1 -4h36zM929 545l-14 4q-10 1 -27.5 -4.5t-26.5 -4.5v-7l19 -1l40 4zM854 540l-12 -1l-2 -8l13 -1zM881 520l-5 5q-27 -2 -37 -1l-9 -6l4 -8l-9 -7
l3 -2q19 4 53 19zM894 426l-17 16l-13 -1q-9 -3 -23 -23l5 -20l10 -12l9 -3l13 8l-4 5l-11 3l-7 10l8 16l22 -2zM1077 277l-1 6l-14 1l1 16h-10l-13 -11l-1 2l21 26l1 23l-3 2q-13 -10 -21 -37h-8l-5 -11l-11 -7l1 6l4 3l2 15l-2 10h-6l-11 -24v-14l-4 -3l-10 22l5 24l-1 27
l-5 9l-5 -7l-3 -12q-3 17 -10 23l-3 -4l-5 -31l-5 17l-7 7l-2 -6v-34l-12 17l-3 -4l3 -23l10 -8h5l4 9h4l2 11l15 -7v-4l-7 -4l1 -10l-4 -3l-7 3l-3 -3q0 -13 -2 -26l7 -5l-5 -8l-7 4l-11 -13l2 -6l12 -3l1 -13h-4v-5l9 -4l1 -11l-2 -5l1 -13h7l6 -12l15 1l15 16l16 7l4 17
l7 5l7 1l1 -2l11 6l11 10l-6 7q-5 -1 -16 -12l-2 6l11 17l17 11v7zM946 448l-32 27l-7 -2q-22 17 -32 17l1 6q-34 -3 -76.5 -21t-66.5 -41l-9 -19l5 -8h14l20 15l-11 -15l8 -4l-5 -11l-10 -1l-4 -4q13 -16 39 -21q23 -3 46 -5q46 -11 83 -28l21 18l-2 18l7 1l-4 10l-13 -1
l-13 -12l-30 -4l-15 2q-25 13 -34 28l-2 10l7 24l-3 11l33 27l19 1l28 -16l13 1l14 -9l9 1zM1031 195q-10 -7 -18 -9l-4 -3l-2 -8l18 11zM728 379l-6 12l-37 24l-7 -12l-10 -5q17 -9 43 -24l6 4zM929 255l-13 26q-41 44 -105 51q58 3 93 -22l14 -15l11 2l-32 35
q-16 6 -150.5 31.5t-144.5 25.5l-32 -3l-16 -7l-2 8l8 14l20 10l9 30l-4 39l9 -1l7 6l-15 15l6 10l15 -11l9 3l-9 16l5 4l17 -11l8 1l-3 9l-10 12l7 5l21 -12l7 5l-18 21l18 2l11 -9l8 -1l-3 14l-6 8l8 13h11l14 -19l8 1q-1 15 -8 30q24 -21 40 -32l2 8l-9 11l7 -1l1 8
l-11 20l11 -8l16 6l8 -11l-14 -9l19 -16l9 2l-11 17l13 -1l-4 18h12q12 -17 26 -20l5 15l-13 16l9 1l18 -16l20 -7l6 3l-20 14l5 6l22 -15h11l1 7l-19 14l13 7l7 -5l6 7l14 -1l5 11l-20 1l-4 9l11 13v8l-22 -3l-4 10l-17 -2l13 20l-1 8l-42 -28l-10 -2l14 20l-3 10l-42 -29
q13 18 12 33l27 5l11 -6l3 7l14 -2l5 4l4 -4l9 1v9l10 20l-11 10l-10 -1l-6 8l25 13l6 12l-13 8l-1 9l-18 -12l-14 -2v15l-7 -1l-18 -22l-6 -1l-7 9l-14 -11l-50 -4l-4 4l-51 -6l-6 3l-6 -1l-7 -4h-16q-13 -8 -55 -9l-12 7q-11 -7 -35 -7l-21 10l-12 -1q-44 10 -69 10
q-15 0 -47.5 9.5t-49.5 9.5q-3 0 -23 -2q-14 -2 -23 0l5 -10l-9 -21l12 -6l-6 -10l11 -25l12 1v-4l8 -1l2 -17l-16 -15l6 -6l15 14l10 -6l-3 -10l1 -13l12 -4l-13 -10q3 -7 0 -16l23 4l9 -7l-30 -21l10 -4l17 7l14 -11h15l-1 -18q6 -7 21.5 -14.5t20.5 -14.5l-10 -14l12 -2
l12 6l1 -12l10 -2l4 -9v-9l16 -14v-24l4 -4l4 -39l-4 -7l3 -15l-14 -9l8 -5l-17 -9l-84 45l15 2q40 -15 71 -24l9 8l-9 7l11 11l-3 11l-31 -8l-21 4l27 16l-14 11l-19 -15l-25 -8l-29 11l-9 29q-1 27 7 42l-1 16l-9 -2l-4 -6h-20l-12 -30l9 -35l15 -15l-70 13v-4
q24 -21 76 -25l20 -17q-51 15 -101 29q-58 16 -105 13l-2 -8q57 -4 128 -22q76 -20 121 -45l-13 -21q-11 -7 -35 -21v-8l12 -4l6 -3l26 3l22 19l-3 -23l18 -1l21 29l-2 18l13 1l1 -8l68 -19l19 10l45 5q17 0 48 -7l48 -10l-89 5l-42 -2l-17 -14l-2 -24l9 -20l7 2l-1 39l54 4
q82 0 92 -6l-3 -5l14 -17l9 3l14 -34q11 -7 32 -11l36 -29l53 -17l-1 11q-16 21 -61 47q-48 27 -67 47q123 -19 165 -56l14 -32zM320 635l-3 7l-17 -11v22l-8 13l-19 -9l2 -26l19 -20q22 14 26 24zM450 506q-16 25 -51.5 44.5t-65.5 21.5l-19 -4l8 -7l17 1q23 1 55 -23
q41 -30 51 -34zM941 178q-18 3 -32 9l21 12l3 12l-6 18l-8 6l-7 -12v-6l-20 -12q-13 0 -37 -1.5t-34 -1.5l-41 11l-19 -3q-3 12 -6 20l5 14l-22 15l-7 43q-18 18 -35 26l-33 3l-30 -11l5 -14l18 2l9 -8l-14 -4l2 -7l22 -10l23 -1l8 -28l14 -10l-6 -5h-11l5 -7l-18 2
q-9 8 -28 21q-5 12 -26 23q-8 26 -22 55l-15 -2l3 -15l-18 17l-8 -1l-2 -7q30 -50 53 -81l35 -20l-25 4q-13 8 -30 27q-22 24 -27 29l-7 -2q25 -49 57 -69q48 -4 94 -28l13 1q24 -11 61 -16l-4 -7h-5l-7 -16l-22 11l-14 1l-6 9l-50 12l-11 -2l3 -17l24 -33l2 -19l12 -3l2 -7
l-7 -5l-17 1l3 -8l13 -9l21 3l4 -3l-12 -12l-10 3l-21 -1l9 -11v-6l11 -5l-9 -16l1 -8l16 6l-1 -10l4 -10l10 15l7 -1l-5 -22l4 -8l14 18l1 -20l4 -5l9 7l7 23l9 -7l2 -10l8 -1l4 8l-1 4l8 -6l7 -18l9 3l-1 16l21 -21l6 7l-2 10q12 -3 27 -4l-2 9l-17 13q12 6 33 1l-9 12
l9 4v9l-6 4l7 3v7l-6 2v10l-17 5l5 3l-4 7l-5 2l1 5l-2 5l-6 2l7 5l-15 5l-15 -2q4 11 5 21l10 5l4 11l-4 13q-18 -18 -18 -31l-14 -9l-2 6l12 16l5 3l3 11l-4 7l-14 -16l1 -5h-6l-2 6l9 6l-1 7l-11 1l-1 11q65 -10 109 -12l14 8zM327 612q-15 -4 -29 -3l-2 -14l-7 -5l1 -8
l20 9zM412 504v5l-8 6l-11 1l-12 -2l-10 -9l-2 -15l3 -11l11 -9l13 7l-8 7l-1 15zM546 340q-5 8 -28 13q-19 5 -31 5l-24 -6l-1 -4q7 -4 33.5 -5.5t42.5 -12.5zM635 130v25l-17 29l-18 8l-2 -12q1 -26 9 -68l12 -13l11 5zM386 303l-2 9q-6 19 -49 48q-2 29 -16 49l-12 -3
l-1 -31l14 -47l19 -9l8 8l31 -24h8zM781 -83l-5 15l-7 -3l5 -13zM751 -85l-6 15l-5 -1v-18zM447 300l-16 -10h-22q-72 0 -123 35q-30 21 -65 68q-30 41 -44 46l-7 11h-14l2 -34l41 -69l9 -1l6 -11l9 1l4 -9l10 1q9 -11 32.5 -24.5t35.5 -11.5l1 6q12 -9 48 -16q29 -5 50 -5
l36 2l7 11v10zM192 489l-13 5l3 10l-25 2l-16 -2l-7 -9l7 -5l10 2h15l-14 -5l-4 -6l3 -3l33 2zM403 256v7l-12 6l-6 -4v-4l8 -8zM727 -75v22h-7l-11 -36l3 -13l12 6zM708 -46l-1 12l-8 -2q-12 -26 -25 -62l6 -3l2 -17l6 -3q17 20 11 55zM565 120q-7 13 -9 38q-3 35 -4 40
l6 26q0 42 -18 74q-17 19 -34 29l-7 -2l-5 7l-23 -17l-10 -42l-5 -6l-22 -9l-8 4l-8 -1l-6 -5l8 -4q22 -2 31 4l3 -15l-7 -7l-1 6l-19 -3l-29 10h-21l-4 1l-18 -4q-1 -3 -24 -33v-4h5l8 5l3 -6l-18 -25l1 -8h6l14 25l8 1l-20 -59l4 -13l8 8l-1 7q9 17 31 45v-11
q-30 -39 -30 -68l5 -24l9 6q-6 36 28 75l2 -21l-11 -9l11 -53q12 -20 24 -30v-6l4 -3l1 -5q-30 -15 -39 -36l-1 -7h8l11 13l1 7h9l-10 -16l7 -6l14 17l-4 7v6l7 4l3 6l8 5q14 -3 44 -3h37q21 23 36 55l-1 9zM671 -66l-10 10v12h-10l-6 7l-2 -18l-8 -1q0 28 -12 49l-6 1
q-3 -22 -7 -66l8 -3l-5 -30l2 -10q6 1 16 7q0 8 10 20h9l-3 -10l2 -9l8 2q9 16 11 37zM837 -301q-4 30 -16 45l-5 -2l-1 1v-16l3 -13l11 -11zM794 -251l-3 9h-10l2 -10l5 -5zM765 -242l-12 15l-5 -3l4 -9zM662 -139l-13 7l-2 -10l6 -2zM604 -66l-7 32h-3l-5 -7l-2 2l-2 16
l-6 3l-6 -24l-16 32l-5 -9q-2 -9 -2 -36q0 -16 -3 -21l1 -22l8 -5l11 6l4 26l5 -6l5 -26l8 -5l13 25zM789 -298l-3 22l-6 10l-5 -1q2 -11 2 -34l9 -10zM767 -280l-1 15l-4 4l-4 -1l5 -28zM666 -170l-13 12l-5 -1l6 -20l10 -3zM624 -149l-2 10l-8 9l-7 -6l6 -13h11zM639 -174
v9l-8 -1v-10zM758 -303l-7 41l-9 -2l4 -43l6 -6zM736 -271l-1 16l-8 1l-6 -15l2 -30l7 -6zM544 -53l-3 11l-4 1l-7 14q-8 -2 -21 -15l-6 5q-23 -31 -20 -54l5 -2l4 8l-2 9h7l2 -9l7 -3q11 18 11 27l5 -7q-5 -13 -6 -26l3 -10l4 -4l12 15q7 20 9 40zM456 11l-10 5l-8 -2
q-11 -10 -13 -20l9 -3q9 2 22 10v10zM486 -25l-8 16l-13 -1l-3 -4l-8 6l-9 -8l-4 -11l-6 -5l-7 -27l6 -12h5q0 9 3 18q3 -7 9 -13l9 6l2 9l-6 8l6 3l1 4l9 -4h5l-5 -17l2 -7l9 6q4 10 3 33zM708 -306l-3 9l2 31l-2 29l-7 -3l-1 -50l3 -8q-6 -13 -2 -45q2 2 10 37zM436 -16
l-10 2q-17 -33 -16 -37l8 1l17 18zM514 -117l-2 5l-15 5l-12 -1v-6l9 -5zM693 -275l-5 26h-6l-1 -29l-9 10l-7 -2l-6 2l-1 19l5 2l1 -15l9 3l1 33l-5 16l-10 2l3 -31h-12l-6 -11l-8 -1l-17 7l-1 11l6 5l-2 8l-13 10l-7 -2l-2 -12l-5 1v6l-13 -4l-2 -6l-18 -11l-15 -1l-1 -5
l-10 -2l-4 6l7 8l17 2l3 4l13 12q7 0 14 2l4 8l3 1l7 -3l13 10q3 11 3 34l-7 1q-3 -6 -4 -12l-4 -1l-4 6v25l-7 16l-17 -30l-1 -22h-10l-9 -21q-18 -16 -30 -22l-8 -17l3 -7l6 2q1 -21 -2 -28l3 -7v-13l6 -4q5 21 4 27l8 1q1 -19 -2 -33l3 -8l9 13l4 -6l9 9q1 19 8 28l7 3
l-3 -32q1 -10 12 -33q8 10 8 31l-5 24l12 14l5 -34l7 5v-5l-2 -6v-30q12 20 17 32l-3 13l5 16l8 1l1 -19q-2 -5 -4 -15v-25l6 -1l6 24l12 -2l4 -8l-9 -17h-5l2 35l6 12l14 1l-3 -17l1 -22l6 1q6 16 4 29q3 7 10 15zM409 -30l-2 9l-7 -1q-7 -17 -6 -29l8 1zM467 -109l-1 6h-9
l-6 -13l4 -2l5 -1zM384 -36l-3 15l-5 -1l-7 -12q3 -10 5 -17h5zM371 -17l-4 1l-1 7l-8 -2l-8 -15l-1 -8h8l11 9zM571 -140v14l-7 5l-23 1l-9 -6l-13 3q-6 -8 -17 -12l-5 7l-10 -6l-13 -24l1 -13q0 -2 -2 -9t-1 -11l-8 -3q-15 -16 -16 -22l16 8q5 12 10 15h3q8 9 20 28l6 -1
l-9 -12l3 -9h4l8 5v-9l-12 -8l-11 -1l-2 -7l-11 -3l-16 -24l5 -7l22 12l7 1l3 13l8 2l-1 6l19 10l5 -5h9q20 12 37 62zM680 -350l-5 9l-10 -5l8 -8zM479 -135l-3 12l-9 -5l-2 -8l-17 -4l-13 -12v-5l6 -2l9 3l12 10l8 -8l8 10zM636 -342l-9 6l-2 -9l10 -4zM464 -165l-7 4
l-3 -1q-11 -10 -13 -17l4 -1q8 5 19 15zM458 -186l-6 6l-9 -16l3 -2l10 4zM434 -193l-3 10l-6 -4l-1 -12l6 1zM570 -325l-7 6l-10 -1l7 -14zM505 -235l-7 4l-10 -19q5 -16 3 -48h5l8 32l-3 22zM517 -304l-3 28l-6 -5q0 -12 -2 -36l7 -9zM438 -226l-5 4l-4 -4l-3 -10h9l3 6v4
zM447 -259l-3 7l-3 -3v-8zM469 -300l-1 25l-8 4l-1 -21zM695 865q-42 -4 -79 14l34 2zM629 907q-40 -14 -134 -26q50 32 134 26zM601 847l-5 -4l-52 9q43 1 57 -5zM779 701l-20 -25h-14v7l-8 2l-35 -28l-4 21l-17 -21h-13l4 9l-17 5l4 17l21 -2l7 12l6 -4l13 1l7 7l8 -5
l11 1l4 7q11 0 25 -4l9 1l4 5zM639 809l-28 -6q-21 14 -41 12l-19 -5q-21 5 -38 0q-52 15 -125 22l32 6q57 -15 135 -15q6 0 21 -2t23 -2zM645 703l-9 -10l-19 -1l-22 4zM610 787l-32 -5q-69 0 -159 29q47 -13 82 -13q12 0 22 2l20 -8l16 1zM566 656l-20 -13l-6 9l-23 -2
l-8 4l-19 -2l-19 7q41 -5 95 -3zM783 382l-8 -1l-16 6l9 3zM365 672l-6 -6h-7l-1 11l9 4zM882 171q-2 1 -46 8q-26 5 -44 14q33 -8 61 -6zM803 131h-8l-4 7l8 6v-6zM421 216l-6 -10l-6 6l9 10zM441 212q-1 -13 -22 -38h-10q17 23 21 37zM578 -194l-7 -3v13l6 2zM558 -136
l-12 -31l-10 -10l-6 7l12 14l1 11l-5 -1l-14 -7l-5 12l1 4l13 5l24 -1zM502 -140l-3 -12l-8 -1l6 12zM597 -254l-9 -5l-3 8l8 6z" />
    <glyph glyph-name="bracketright" unicode="]" horiz-adv-x="390" 
d="M390 851zM90 0q0 62 44 105.5t106 43.5v553q-62 0 -106 43.5t-44 105.5h300v-852z" />
    <glyph glyph-name="asciicircum" unicode="^" horiz-adv-x="184" 
d="M282 149l-87 -150h-203l87 150h203z" />
    <glyph glyph-name="underscore" unicode="_" horiz-adv-x="99" 
d="M196 149v-150h-203l-1 150h204z" />
    <glyph glyph-name="grave" unicode="`" horiz-adv-x="672" 
d="M585 587l-279 151v78l279 -154v-75z" />
    <glyph glyph-name="a" unicode="a" horiz-adv-x="672" 
d="M837 -1h-837l87 150h95q12 100 67 170q64 80 158 80h67q62 0 121 21q79 28 79 79v-350h163v-150zM526 149v50q-1 32 -1 50h-116q-30 0 -52 -37q-17 -28 -23 -63h192z" />
    <glyph glyph-name="b" unicode="b" horiz-adv-x="756" 
d="M615 667q0 -31 -22.5 -53t-52.5 -22q-31 0 -53 22t-22 53t22 53t53 22q30 0 52.5 -22t22.5 -53zM921 149l-1 -150h-920l87 150h117q0 -23 0 434v120v-2q0 62 45 106t107 44l-1 -504q45 52 113 52h235q31 0 53 -22t22 -52v-176h143zM629 149v100h-274l-1 -100h275z" />
    <glyph glyph-name="c" unicode="c" horiz-adv-x="581" 
d="M498 667q0 -31 -22 -53t-53 -22t-53 22t-22 53t22 53t53 22t53 -22t22 -53zM746 -1h-306q-92 0 -167 44q-87 50 -92 136q-1 10 -1 145q0 77 113 77q13 0 35 -1t30 -1q62 0 121 21q79 28 79 79v-250h-228v-51q0 -24 47 -38q34 -11 63 -11h306v-150z" />
    <glyph glyph-name="d" unicode="d" horiz-adv-x="774" 
d="M539 667q0 -31 -22.5 -53t-52.5 -22q-31 0 -53 22t-22 53t22 53t53 22q30 0 52.5 -22t22.5 -53zM939 149l-1 -150h-938l87 150h137v176q0 30 22 52t53 22h250v0q60 -6 99 -51l1 503q58 0 103.5 -46t45.5 -104l1 -552h140zM649 149v100h-276v-100h276z" />
    <glyph glyph-name="e" unicode="e" horiz-adv-x="626" 
d="M791 -1h-496q-26 0 -44.5 -18t-18.5 -44q0 -25 18.5 -42.5t44.5 -17.5h351v-77q0 -31 -22 -53t-53 -22h-276q-88 0 -150.5 62.5t-62.5 149.5q0 32 10 62h-92l87 150h182q-8 23 -8 40l1 135q0 31 22 53t53 22h132q54 0 105 23q65 29 65 76l1 -249h-229v-51q0 -24 47 -38
q34 -11 63 -11h270v-150z" />
    <glyph glyph-name="f" unicode="f" horiz-adv-x="602" 
d="M549 667q0 -31 -22 -53t-53 -22t-53 22t-22 53t22 53t53 22t53 -22t22 -53zM767 0h-384q-94 0 -94 -63l-1 -374h-75q-31 0 -53 22t-22 53h1v298q0 33 9 63h-148l87 150h171q-9 30 -9 61l1 115q0 76 112 76q12 0 33 -1t29 -1q62 0 120 21q80 28 80 79v-250h-225v-39
q0 -22 15 -40.5t37 -21.5h94h222v-148z" />
    <glyph glyph-name="g" unicode="g" horiz-adv-x="641" 
d="M636 860q0 -30 -22 -52.5t-53 -22.5t-53 22.5t-22 52.5q0 31 22 53t53 22t53 -22t22 -53zM636 668q0 -31 -22 -53t-53 -22t-53 22t-22 53t22 53t53 22t53 -22t22 -53zM806 149l-1 -150h-163v-29q0 -122 -83 -196q-79 -71 -202 -71q-109 0 -184 56q-83 62 -83 167
q0 122 75 141q0 -91 42 -151q48 -69 135 -69q32 0 75 61.5t75 61.5v173h-149q-52 0 -89 37.5t-37 89.5q0 53 37 91t89 38h100q62 0 120 21q80 28 80 79v-350h163zM492 236v69h-149q-13 0 -22.5 -10.5t-9.5 -24.5q0 -13 9.5 -23t22.5 -10v-1h149z" />
    <glyph glyph-name="h" unicode="h" horiz-adv-x="776" 
d="M708 667q0 -31 -22 -53t-53 -22t-53 22t-22 53t22 53t53 22t53 -22t22 -53zM941 149l-1 -150h-312v250h-273l-1 -250h-354l87 150h118v552h-1q0 61 44.5 105.5t105.5 44.5l1 -503q45 51 113 51h235q31 0 53 -22t22 -53v-175h163z" />
    <glyph glyph-name="i" unicode="i" horiz-adv-x="475" 
d="M333 667q0 -31 -22 -53t-53 -22q-30 0 -52.5 22t-22.5 53t22.5 53t52.5 22q31 0 53 -22t22 -53zM610 66q0 -91 -54 -153t-144 -62q-72 0 -127 40t-81 108h-204l87 150h96v325q62 0 106 -44t44 -106v-217q-2 -43 24 -75q27 -35 70 -35q63 0 93 78q21 56 21 132
q69 -20 69 -141z" />
    <glyph glyph-name="j" unicode="j" horiz-adv-x="572" 
d="M737 149l-1 -150h-146v-43q0 -88 -62 -150t-150 -62t-150.5 62t-62.5 150v193h150v-193q0 -26 18.5 -44t44.5 -18t44 18t18 44l-1 742v7v-7v0q0 61 45 105.5t107 44.5l-1 -699h147zM439 698v7v-7z" />
    <glyph glyph-name="k" unicode="k" horiz-adv-x="634" 
d="M799 -1h-226q-32 0 -55 24l-95 102l-85 -126h-338l87 150h118l1 702q62 0 106 -44.5t44 -105.5h-1l1 -443q28 43 56 85q35 50 68 74q43 31 95 31q40 0 79 -15v-160h-1q-29 44 -78 44q-18 0 -38 -25q-1 -1 -27 -40l96 -103h193v-150z" />
    <glyph glyph-name="l" unicode="l" horiz-adv-x="388" 
d="M552 -1h-552l87 150h146l1 555q0 62 45.5 106t107.5 44q0 11 1 -168q0 35 0 -537h164v-150z" />
    <glyph glyph-name="m" unicode="m" horiz-adv-x="957" 
d="M1121 -1h-313v250h-162v-250h-219l1 150h68v100h-162v-249l-334 -1l87 150h97v217l150 86v-116q45 63 122 63h115q28 0 49.5 -19t24.5 -48q45 67 125 67h113q31 0 53 -22t22 -53v-175h163v-150zM615 -200q0 -31 -22 -53t-53 -22t-53 22t-22 53t22 53t53 22t53 -22t22 -53
zM401 -200q0 -31 -22.5 -53t-52.5 -22q-31 0 -53 22t-22 53t22 53t53 22q30 0 52.5 -22t22.5 -53z" />
    <glyph glyph-name="n" unicode="n" horiz-adv-x="671" 
d="M836 149l-1 -150h-318v250h-198v-250h-319l87 150h82v217l150 86v-118q45 65 124 65h150q31 0 53 -22t22 -53v-175h168z" />
    <glyph glyph-name="o" unicode="o" horiz-adv-x="677" 
d="M842 149v-150h-150q-28 -74 -94 -121t-148 -47t-148 47t-94 121h-208l87 150h112q27 120 167 183q38 18 61 57.5t23 83.5q0 -43 22.5 -83t59.5 -57q143 -66 170 -184h140zM558 88q0 45 -31.5 76.5t-76.5 31.5q-44 0 -76 -31.5t-32 -76.5q0 -44 32 -75.5t76 -31.5
q45 0 76.5 31.5t31.5 75.5z" />
    <glyph glyph-name="p" unicode="p" horiz-adv-x="640" 
d="M513 892q0 -31 -22 -53t-53 -22t-53 22t-22 53t22 53t53 22t53 -22t22 -53zM626 742q0 -31 -22 -53t-53 -22t-53 22t-22 53t22 53t53 22t53 -22t22 -53zM401 742q0 -31 -22 -53t-53 -22t-53 22t-22 53t22 53t53 22t53 -22t22 -53zM804 149l-1 -150h-803l87 150h114
l-1 400q0 -51 79 -80q59 -20 121 -20h165q52 0 89.5 -38t37.5 -91t-37.5 -90.5t-90.5 -37.5v0h-213v-43h453zM600 320q0 14 -10.5 24.5t-24.5 10.5h-215v-69l215 -1q14 0 24.5 10t10.5 25z" />
    <glyph glyph-name="q" unicode="q" horiz-adv-x="852" 
d="M561 892q0 -31 -22 -53t-53 -22t-53 22t-22 53t22 53t53 22t53 -22t22 -53zM674 742q0 -31 -22 -53t-53 -22t-53 22t-22 53t22 53t53 22t53 -22t22 -53zM449 742q0 -31 -22 -53t-53 -22t-53 22t-22 53t22 53t53 22t53 -22t22 -53zM965 66q0 -91 -54 -153t-143 -62
q-73 0 -127.5 40t-81.5 108h-559l87 150h452v43h-214v0q-53 0 -90.5 37.5t-37.5 90.5q0 52 37.5 90t89.5 38l165 1q62 0 121 21q79 28 79 79v-454q0 -39 27.5 -68.5t66.5 -29.5q62 0 92 78q22 56 22 132q68 -20 68 -141zM539 286v69h-215q-14 0 -24.5 -10.5t-10.5 -24.5
q0 -15 10.5 -25.5t24.5 -10.5v2h215z" />
    <glyph glyph-name="r" unicode="r" horiz-adv-x="664" 
d="M829 149l-1 -150h-318v47q1 34 1 46q0 113 -53 147q-17 10 -30 10h-44v-249l-384 -1l87 150h149l-1 350q0 -51 70 -79q51 -21 110 -21h15q94 0 157 -80q54 -70 67 -170h175z" />
    <glyph glyph-name="s" unicode="s" horiz-adv-x="770" 
d="M860 638l-348 -193q-18 -11 -18 -27q0 -19 21 -19h68q73 0 117 -44t44 -117v-239h-744l87 150h509v101h-401v107l665 325v-44z" />
    <glyph glyph-name="t" unicode="t" horiz-adv-x="589" 
d="M686 -1h-84v-39q0 -88 -62.5 -150t-150.5 -62t-149 62t-61 150v39h-179l87 150h92l1 705q62 0 105.5 -43.5t43.5 -106.5h-1v-155h131l87 -150h-218v-439q0 -26 17.5 -44t43.5 -18t44.5 18t18.5 44v189h234v-150z" />
    <glyph glyph-name="u" unicode="u" horiz-adv-x="682" 
d="M846 149l-1 -150l-522 1q-62 0 -105.5 44t-44.5 106v99q-1 62 43 106t107 44v-249h193v102q0 61 44.5 104t105.5 43q0 -146 1 -250h179z" />
    <glyph glyph-name="v" unicode="v" horiz-adv-x="671" 
d="M378 667q0 -31 -22 -53t-53 -22t-53 22t-22 53t22 53t53 22t53 -22t22 -53zM671 74q0 -31 -22 -53t-53 -22h-44v-93l-65 93l-487 -1l87 151h294l-100 142q-19 27 -40 27q-48 0 -77 -44h-1v160q38 15 78 15q89 0 150 -86l130 -184v70q0 62 44 106t106 44v-325z" />
    <glyph glyph-name="w" unicode="w" horiz-adv-x="805" 
d="M595 742q0 -31 -22 -53t-53 -22t-53 22t-22 53t22 53t53 22t53 -22t22 -53zM708 592q0 -31 -22 -53t-53 -22t-53 22t-22 53t22 53t53 22t53 -22t22 -53zM483 592q0 -31 -22 -53t-53 -22t-53 22t-22 53t22 53t53 22t53 -22t22 -53zM805 249v0v-174q0 -32 -22 -54t-53 -22
l-730 -1l87 151h110v400q74 0 151 -146l-1 -254h81l1 325q62 0 106 -44t44 -106l-1 1v-176h77v250q62 0 106 -44t44 -106z" />
    <glyph glyph-name="x" unicode="x" horiz-adv-x="612" 
d="M776 -1h-233l25 -35v-227l-167 236l-168 -236v227l26 36h-269l87 149h199l-58 83q-21 27 -40 27q-31 0 -57 -22v145q28 8 57 8q88 0 149 -87l74 -103l73 103q62 87 150 87q28 0 56 -8v-145q-26 22 -56 22q-21 0 -40 -27q-3 -4 -58 -83h250v-150z" />
    <glyph glyph-name="y" unicode="y" horiz-adv-x="693" 
d="M693 399q0 6 2 -235q1 -145 -2 -232t-64 -149t-149 -62t-150 62t-62 150h150q0 -26 18 -44t44 -18t44.5 18t18.5 44v67h-543l87 149h114q-1 104 0 104q1 61 45 103.5t105 42.5v-250h192v103q1 61 45 104t105 43z" />
    <glyph glyph-name="z" unicode="z" horiz-adv-x="714" 
d="M879 149l-86 -149l-482 -1q-73 0 -110 33t-37 88q0 94 74 123l250 95q24 9 23 25q0 11 -19 22l-446 253v44l661 -325l1 -99l-299 -109h470z" />
    <glyph glyph-name="braceleft" unicode="{" horiz-adv-x="218" 
d="M-139 -67q2 -78 60 -126q62 -52 171 -52q119 0 195 73q72 68 81 175h-149q-5 -100 -117 -104q-68 0 -105 25q-56 39 -56 141q0 19 2 39q-80 -22 -82 -171z" />
    <glyph glyph-name="bar" unicode="|" horiz-adv-x="266" 
d="M266 -1h-156l2 704q0 62 46 106.5t109 44.5z" />
    <glyph glyph-name="braceright" unicode="}" horiz-adv-x="517" 
d="M351 -67q-9 -78 -71 -126q-67 -52 -176 -52q-119 0 -188 73q-66 68 -66 175h149q-4 -100 107 -104q75 0 115 31q63 48 63 174q68 -19 68 -141q0 -16 -1 -30z" />
    <glyph glyph-name="asciitilde" unicode="~" horiz-adv-x="184" 
d="M282 149l-87 -150h-203l87 150h203z" />
    <glyph glyph-name="exclamdown" unicode="&#xa1;" horiz-adv-x="298" 
d="M286 397l152 1l-1 -463h1q0 -62 -44 -106t-106 -44zM262 536q0 42 29.5 71t71.5 29q41 0 70.5 -29t29.5 -71q0 -41 -29.5 -70.5t-70.5 -29.5q-42 0 -71.5 29.5t-29.5 70.5z" />
    <glyph glyph-name="cent" unicode="&#xa2;" horiz-adv-x="504" 
d="M474 309q0 -64 -35.5 -116t-92.5 -75v-119h-150v116q-60 22 -98 75t-38 119v264q0 66 38 119t98 75v84h150v-87q57 -23 92.5 -75t35.5 -116h-150q0 24 -16.5 40.5t-40.5 16.5t-40.5 -16.5t-16.5 -40.5v-264q0 -24 16.5 -40.5t40.5 -16.5t40.5 16.5t16.5 40.5h150z" />
    <glyph glyph-name="sterling" unicode="&#xa3;" horiz-adv-x="649" 
d="M619 74q0 -31 -22.5 -53t-52.5 -22h-459v150h98v178h-123l87 150h37v76q-1 57 -1 76q0 100 55 155q64 65 156 65h224q0 -62 -44 -106t-106 -44q-82 0 -65 1q-39 -2 -59 -22q-11 -11 -11 -48l1 -153h111l-86 -150h-26v-178h286v-75z" />
    <glyph glyph-name="currency" unicode="&#xa4;" horiz-adv-x="675" 
d="M645 258q0 -106 -75.5 -182t-182.5 -76q-106 0 -182 76t-76 182v69h-129l87 150h42v147q0 106 76 182t182 76q107 0 182.5 -76t75.5 -182h-150q0 44 -31.5 76t-76.5 32q-44 0 -76 -32t-32 -76v-147h136l-86 -150h-50v-69q0 -44 32 -76t76 -32q45 0 76.5 32t31.5 76h150z
" />
    <glyph glyph-name="currency" unicode="&#x20ac;" horiz-adv-x="675" 
d="M645 258q0 -106 -75.5 -182t-182.5 -76q-106 0 -182 76t-76 182v69h-129l87 150h42v147q0 106 76 182t182 76q107 0 182.5 -76t75.5 -182h-150q0 44 -31.5 76t-76.5 32q-44 0 -76 -32t-32 -76v-147h136l-86 -150h-50v-69q0 -44 32 -76t76 -32q45 0 76.5 32t31.5 76h150z
" />
    <glyph glyph-name="yen" unicode="&#xa5;" horiz-adv-x="640" 
d="M610 851l-201 -520h109l-86 -150h-22v-182h-150v182h-127l87 150h41l-201 520h161l114 -295l114 295h161z" />
    <glyph glyph-name="dieresis" unicode="&#xa8;" horiz-adv-x="672" 
d="M630 708q0 -31 -22 -53t-53 -22t-53 22t-22 53t22 53t53 22t53 -22t22 -53zM416 708q0 -31 -22 -53t-53 -22q-32 0 -53.5 22t-21.5 53t21.5 53t53.5 22q31 0 53 -22t22 -53z" />
    <glyph glyph-name="copyright" unicode="&#xa9;" horiz-adv-x="1271" 
d="M1196 288q0 -130 -57 -247l-21 -42h-438q-92 0 -167 44q-87 51 -92 136q-1 10 -1 145q0 77 113 77q13 0 35 -1t30 -1q62 0 121 21q79 28 79 79v-250h-228v-51q0 -24 47 -38q34 -11 63 -11h342q24 67 24 139q0 170 -120.5 290.5t-289.5 120.5q-170 0 -290.5 -120.5
t-120.5 -290.5q0 -104 49 -195t137 -148l-75 -131q-123 78 -192 203.5t-69 270.5q0 232 164.5 396.5t396.5 164.5q231 0 395.5 -164.5t164.5 -396.5z" />
    <glyph glyph-name="guillemotleft" unicode="&#xab;" horiz-adv-x="653" 
d="M375 16h-118l-182 182l182 182h118l-180 -182zM600 16h-118l-182 182l182 182h118l-180 -182z" />
    <glyph glyph-name="degree" unicode="&#xb0;" horiz-adv-x="474" 
d="M430 671q0 -72 -51.5 -123.5t-123.5 -51.5t-123.5 51.5t-51.5 123.5q0 73 51.5 124t123.5 51t123.5 -51t51.5 -124zM324 671q0 29 -20.5 49t-48.5 20t-48.5 -20t-20.5 -49q0 -28 20.5 -48t48.5 -20t48.5 20t20.5 48z" />
    <glyph glyph-name="acute" unicode="&#xb4;" horiz-adv-x="672" 
d="M585 738l-279 -151v75l279 154v-78z" />
    <glyph glyph-name="periodcentered" unicode="&#xb7;" horiz-adv-x="218" 
d="M300 325q0 -31 -22 -53t-53 -22t-53 22t-22 53t22 53t53 22t53 -22t22 -53z" />
    <glyph glyph-name="periodcentered" unicode="&#x2219;" horiz-adv-x="218" 
d="M300 325q0 -31 -22 -53t-53 -22t-53 22t-22 53t22 53t53 22t53 -22t22 -53z" />
    <glyph glyph-name="cedilla" unicode="&#xb8;" horiz-adv-x="581" 
d="M511 86l-1 -166v0q-2 -61 -45 -104t-104 -43v312z" />
    <glyph glyph-name="guillemotright" unicode="&#xbb;" horiz-adv-x="825" 
d="M600 198l-182 -182h-118l180 182l-180 182h118zM825 198l-182 -182h-118l180 182l-180 182h118z" />
    <glyph glyph-name="questiondown" unicode="&#xbf;" horiz-adv-x="574" 
d="M82 72q0 87 91 142q78 47 169 47h44l1 139h150q0 -28 -1 -147q-1 -93 -1 -142h-193q-93 0 -109 -48v-50h228v-250q0 41 -59 70.5t-141 29.5h-103q-31 0 -53 22t-22 53zM357 538q0 41 29.5 70.5t70.5 29.5t70.5 -29.5t29.5 -70.5t-29.5 -70.5t-70.5 -29.5t-70.5 29.5
t-29.5 70.5z" />
    <glyph glyph-name="Agrave" unicode="&#xc0;" horiz-adv-x="675" 
d="M675 -1h-675l87 150h95q12 100 67 170q64 80 158 80h67q62 0 121 21q79 28 79 79zM526 149v50q-1 32 -1 50h-116q-30 0 -52 -37q-17 -28 -23 -63h192zM585 587l-279 151v78l279 -154v-75z" />
    <glyph glyph-name="Aacute" unicode="&#xc1;" horiz-adv-x="675" 
d="M675 -1h-675l87 150h95q12 100 67 170q64 80 158 80h67q62 0 121 21q79 28 79 79zM526 149v50q-1 32 -1 50h-116q-30 0 -52 -37q-17 -28 -23 -63h192zM585 738l-279 -151v75l279 154v-78z" />
    <glyph glyph-name="Acircumflex" unicode="&#xc2;" horiz-adv-x="675" 
d="M675 -1h-675l87 150h95q12 100 67 170q64 80 158 80h67q62 0 121 21q79 28 79 79zM526 149v50q-1 32 -1 50h-116q-30 0 -52 -37q-17 -28 -23 -63h192zM588 600l-139 138l-140 -138v91l140 140l139 -140v-91z" />
    <glyph glyph-name="Atilde" unicode="&#xc3;" horiz-adv-x="675" 
d="M675 -1h-675l87 150h95q12 100 67 170q64 80 158 80h67q62 0 121 21q79 28 79 79zM526 149v50q-1 32 -1 50h-116q-30 0 -52 -37q-17 -28 -23 -63h192zM641 681q-109 -46 -129 -46q-11 0 -33 9q-39 15 -42 16q-47 16 -72 13q-60 -6 -105 -32v78q73 33 118 36
q22 2 68 -19.5t66 -20.5q28 2 129 41v-75z" />
    <glyph glyph-name="Adieresis" unicode="&#xc4;" horiz-adv-x="675" 
d="M675 -1h-675l87 150h95q12 100 67 170q64 80 158 80h67q62 0 121 21q79 28 79 79zM526 149v50q-1 32 -1 50h-116q-30 0 -52 -37q-17 -28 -23 -63h192zM630 708q0 -31 -22 -53t-53 -22t-53 22t-22 53t22 53t53 22t53 -22t22 -53zM416 708q0 -31 -22 -53t-53 -22
q-32 0 -53.5 22t-21.5 53t21.5 53t53.5 22q31 0 53 -22t22 -53z" />
    <glyph glyph-name="Aring" unicode="&#xc5;" horiz-adv-x="675" 
d="M675 -1h-675l87 150h95q12 100 67 170q64 80 158 80h67q62 0 121 21q79 28 79 79zM526 149v50q-1 32 -1 50h-116q-30 0 -52 -37q-17 -28 -23 -63h192zM558 697q0 -44 -30.5 -74.5t-74.5 -30.5q-43 0 -74 30.5t-31 74.5q0 43 31 74t74 31q44 0 74.5 -31t30.5 -74zM495 697
q0 17 -12.5 29t-29.5 12t-29 -12t-12 -29t12 -29t29 -12t29.5 12t12.5 29z" />
    <glyph glyph-name="AE" unicode="&#xc6;" horiz-adv-x="908" 
d="M1073 -1h-481q-26 0 -44.5 -18t-18.5 -44q0 -25 18.5 -43.5t44.5 -18.5h350v-75q0 -31 -22 -53t-53 -22h-275q-88 0 -150.5 62.5t-62.5 149.5q0 32 9 62h-388l87 150h125q12 100 67 170q64 80 158 80h71q62 0 121 21q79 28 79 79v-100h228v-150h-228v-51q0 -5 8 -15
q27 -34 102 -34h255v-150zM559 249h-117q-32 0 -55 -35q-17 -28 -23 -65h193z" />
    <glyph glyph-name="Ccedilla" unicode="&#xc7;" horiz-adv-x="581" 
d="M498 667q0 -31 -22 -53t-53 -22t-53 22t-22 53t22 53t53 22t53 -22t22 -53zM746 -1h-306q-93 0 -167 44q-87 50 -92 136q-1 10 -1 145q0 77 113 77q13 0 35 -1t30 -1q62 0 121 21q79 28 79 79v-250h-228v-51q0 -24 46 -38q35 -11 64 -11h106q82 0 141 29.5t59 70.5v-250z
M511 86l-1 -166v0q-2 -61 -45 -104t-104 -43v312z" />
    <glyph glyph-name="Egrave" unicode="&#xc8;" horiz-adv-x="626" 
d="M791 -1h-496q-26 0 -44.5 -18t-18.5 -44q0 -25 18.5 -42.5t44.5 -17.5h351v-77q0 -31 -22 -53t-53 -22h-276q-88 0 -150.5 62.5t-62.5 149.5q0 32 10 62h-92l87 150h182q-8 23 -8 40l1 135q0 31 22 53t53 22h132q54 0 105 23q65 29 65 76l1 -249h-229v-51q0 -24 47 -38
q34 -11 63 -11h270v-150zM585 587l-279 151v78l279 -154v-75z" />
    <glyph glyph-name="Eacute" unicode="&#xc9;" horiz-adv-x="626" 
d="M791 -1h-496q-26 0 -44.5 -18t-18.5 -44q0 -25 18.5 -42.5t44.5 -17.5h351v-77q0 -31 -22 -53t-53 -22h-276q-88 0 -150.5 62.5t-62.5 149.5q0 32 10 62h-92l87 150h182q-8 23 -8 40l1 135q0 31 22 53t53 22h132q54 0 105 23q65 29 65 76l1 -249h-229v-51q0 -24 47 -38
q34 -11 63 -11h270v-150zM585 738l-279 -151v75l279 154v-78z" />
    <glyph glyph-name="Ecircumflex" unicode="&#xca;" horiz-adv-x="626" 
d="M791 -1h-496q-26 0 -44.5 -18t-18.5 -44q0 -25 18.5 -42.5t44.5 -17.5h351v-77q0 -31 -22 -53t-53 -22h-276q-88 0 -150.5 62.5t-62.5 149.5q0 32 10 62h-92l87 150h182q-8 23 -8 40l1 135q0 31 22 53t53 22h132q54 0 105 23q65 29 65 76l1 -249h-229v-51q0 -24 47 -38
q34 -11 63 -11h270v-150zM588 600l-139 138l-140 -138v91l140 140l139 -140v-91z" />
    <glyph glyph-name="Edieresis" unicode="&#xcb;" horiz-adv-x="626" 
d="M791 -1h-496q-26 0 -44.5 -18t-18.5 -44q0 -25 18.5 -42.5t44.5 -17.5h351v-77q0 -31 -22 -53t-53 -22h-276q-88 0 -150.5 62.5t-62.5 149.5q0 32 10 62h-92l87 150h182q-8 23 -8 40l1 135q0 31 22 53t53 22h132q54 0 105 23q65 29 65 76l1 -249h-229v-51q0 -24 47 -38
q34 -11 63 -11h270v-150z" />
    <glyph glyph-name="Igrave" unicode="&#xcc;" horiz-adv-x="505" 
d="M610 66q0 -91 -54 -153t-144 -62q-72 0 -127 40t-81 108h-204l87 150h96v325q62 0 106 -44t44 -106v-217q-2 -43 24 -75q27 -35 70 -35q63 0 93 78q21 56 21 132q69 -20 69 -141zM420 587l-279 151v78l279 -154v-75z" />
    <glyph glyph-name="Iacute" unicode="&#xcd;" horiz-adv-x="505" 
d="M610 66q0 -91 -54 -153t-144 -62q-72 0 -127 40t-81 108h-204l87 150h96v325q62 0 106 -44t44 -106v-217q-2 -43 24 -75q27 -35 70 -35q63 0 93 78q21 56 21 132q69 -20 69 -141zM420 738l-279 -151v75l279 154v-78z" />
    <glyph glyph-name="Icircumflex" unicode="&#xce;" horiz-adv-x="505" 
d="M610 66q0 -91 -54 -153t-144 -62q-72 0 -127 40t-81 108h-204l87 150h96v325q62 0 106 -44t44 -106v-217q-2 -43 24 -75q27 -35 70 -35q63 0 93 78q21 56 21 132q69 -20 69 -141zM423 600l-139 138l-140 -138v91l140 140l139 -140v-91z" />
    <glyph glyph-name="Idieresis" unicode="&#xcf;" horiz-adv-x="505" 
d="M610 66q0 -91 -54 -153t-144 -62q-72 0 -127 40t-81 108h-204l87 150h96v325q62 0 106 -44t44 -106v-217q-2 -43 24 -75q27 -35 70 -35q63 0 93 78q21 56 21 132q69 -20 69 -141z" />
    <glyph glyph-name="Eth" unicode="&#xd0;" horiz-adv-x="743" 
d="M769 75q0 -31 -22 -53.5t-53 -22.5h-694l87 150h107l-1 176q0 31 22.5 52.5t52.5 21.5h344q-16 43 -60 87l-127 128l-52 -52l-53 53l52 53l-138 138q44 44 106 44q63 0 106 -44v-1l32 -32l54 54l53 -53l-54 -54l128 -128q109 -108 109 -219zM619 149v100h-274l-1 -100
h275z" />
    <glyph glyph-name="Ntilde" unicode="&#xd1;" horiz-adv-x="668" 
d="M668 324v-325h-151v250h-198v-250h-319l87 150h82v217l150 86v-118q45 65 124 65h150q31 0 53 -22t22 -53zM611 681q-109 -46 -129 -46q-11 0 -33 9q-39 15 -42 16q-47 16 -72 13q-60 -6 -105 -32v78q73 33 118 36q22 2 68 -19.5t66 -20.5q28 2 129 41v-75z" />
    <glyph glyph-name="Ograve" unicode="&#xd2;" horiz-adv-x="662" 
d="M708 88q0 -106 -75.5 -181.5t-182.5 -75.5q-82 0 -148 47t-94 121h-208l87 150h112q27 120 167 183q38 18 61 57.5t23 83.5q0 -43 22.5 -83t59.5 -57q176 -81 176 -245zM558 88q0 45 -31.5 76.5t-76.5 31.5q-44 0 -76 -31.5t-32 -76.5q0 -44 32 -75.5t76 -31.5
q45 0 76.5 31.5t31.5 75.5zM585 587l-279 151v78l279 -154v-75z" />
    <glyph glyph-name="Oacute" unicode="&#xd3;" horiz-adv-x="662" 
d="M708 88q0 -106 -75.5 -181.5t-182.5 -75.5q-82 0 -148 47t-94 121h-208l87 150h112q27 120 167 183q38 18 61 57.5t23 83.5q0 -43 22.5 -83t59.5 -57q176 -81 176 -245zM558 88q0 45 -31.5 76.5t-76.5 31.5q-44 0 -76 -31.5t-32 -76.5q0 -44 32 -75.5t76 -31.5
q45 0 76.5 31.5t31.5 75.5zM585 738l-279 -151v75l279 154v-78z" />
    <glyph glyph-name="Ocircumflex" unicode="&#xd4;" horiz-adv-x="662" 
d="M708 88q0 -106 -75.5 -181.5t-182.5 -75.5q-82 0 -148 47t-94 121h-208l87 150h112q27 120 167 183q38 18 61 57.5t23 83.5q0 -43 22.5 -83t59.5 -57q176 -81 176 -245zM558 88q0 45 -31.5 76.5t-76.5 31.5q-44 0 -76 -31.5t-32 -76.5q0 -44 32 -75.5t76 -31.5
q45 0 76.5 31.5t31.5 75.5zM588 600l-139 138l-140 -138v91l140 140l139 -140v-91z" />
    <glyph glyph-name="Otilde" unicode="&#xd5;" horiz-adv-x="662" 
d="M708 88q0 -106 -75.5 -181.5t-182.5 -75.5q-82 0 -148 47t-94 121h-208l87 150h112q27 120 167 183q38 18 61 57.5t23 83.5q0 -43 22.5 -83t59.5 -57q176 -81 176 -245zM558 88q0 45 -31.5 76.5t-76.5 31.5q-44 0 -76 -31.5t-32 -76.5q0 -44 32 -75.5t76 -31.5
q45 0 76.5 31.5t31.5 75.5zM641 681q-109 -46 -129 -46q-11 0 -33 9q-39 15 -42 16q-47 16 -72 13q-60 -6 -105 -32v78q73 33 118 36q22 2 68 -19.5t66 -20.5q28 2 129 41v-75z" />
    <glyph glyph-name="Odieresis" unicode="&#xd6;" horiz-adv-x="662" 
d="M708 88q0 -106 -75.5 -181.5t-182.5 -75.5q-82 0 -148 47t-94 121h-208l87 150h112q27 120 167 183q38 18 61 57.5t23 83.5q0 -43 22.5 -83t59.5 -57q176 -81 176 -245zM558 88q0 45 -31.5 76.5t-76.5 31.5q-44 0 -76 -31.5t-32 -76.5q0 -44 32 -75.5t76 -31.5
q45 0 76.5 31.5t31.5 75.5zM630 708q0 -31 -22 -53t-53 -22t-53 22t-22 53t22 53t53 22t53 -22t22 -53zM416 708q0 -31 -22 -53t-53 -22q-32 0 -53.5 22t-21.5 53t21.5 53t53.5 22q31 0 53 -22t22 -53z" />
    <glyph glyph-name="Oslash" unicode="&#xd8;" horiz-adv-x="662" 
d="M708 88q0 -106 -76 -181.5t-182 -75.5q-80 0 -147 46.5t-95 121.5h-208l87 150h112q15 66 61 112q36 36 106 71q84 43 84 141q1 -98 82 -140q89 -46 128 -95q48 -59 48 -150zM479 192q-14 4 -29 4q-44 0 -76 -31.5t-32 -76.5q0 -14 4 -28zM558 88q0 12 -2 22l-128 -127
q11 -2 22 -2q44 0 76 31.5t32 75.5z" />
    <glyph glyph-name="Ugrave" unicode="&#xd9;" horiz-adv-x="678" 
d="M678 73q0 -31 -22 -53t-53 -22l-603 1l87 150h98v104q1 60 45 103t104 43l1 -249h193v99q0 62 44 106t106 44v-326zM585 587l-279 151v78l279 -154v-75z" />
    <glyph glyph-name="Uacute" unicode="&#xda;" horiz-adv-x="678" 
d="M678 73q0 -31 -22 -53t-53 -22l-603 1l87 150h98v104q1 60 45 103t104 43l1 -249h193v99q0 62 44 106t106 44v-326zM570 738l-279 -151v75l279 154v-78z" />
    <glyph glyph-name="Ucircumflex" unicode="&#xdb;" horiz-adv-x="678" 
d="M678 73q0 -31 -22 -53t-53 -22l-603 1l87 150h98v104q1 60 45 103t104 43l1 -249h193v99q0 62 44 106t106 44v-326zM573 600l-139 138l-140 -138v91l140 140l139 -140v-91z" />
    <glyph glyph-name="Udieresis" unicode="&#xdc;" horiz-adv-x="678" 
d="M678 73q0 -31 -22 -53t-53 -22l-603 1l87 150h98v104q1 60 45 103t104 43l1 -249h193v99q0 62 44 106t106 44v-326zM630 708q0 -31 -22 -53t-53 -22t-53 22t-22 53t22 53t53 22t53 -22t22 -53zM416 708q0 -31 -22 -53t-53 -22q-32 0 -53.5 22t-21.5 53t21.5 53t53.5 22
q31 0 53 -22t22 -53z" />
    <glyph glyph-name="Yacute" unicode="&#xdd;" horiz-adv-x="693" 
d="M693 399q0 6 2 -235q1 -145 -2 -232t-64 -149t-149 -62t-150 62t-62 150h150q0 -26 18 -44t44 -18t44.5 18t18.5 44v67h-543l87 149h114q-1 104 0 104q1 61 45 103.5t105 42.5v-250h192v103q1 61 45 104t105 43zM585 738l-279 -151v75l279 154v-78z" />
    <glyph glyph-name="Thorn" unicode="&#xde;" horiz-adv-x="659" 
d="M691 320q0 -52 -37 -90t-89 -38h-217v-193h-348l87 150h111l1 559h150v-259h216q52 0 89 -38.5t37 -90.5zM598 320q0 13 -10 24t-23 11h-216v-69h216q13 0 23 10t10 24z" />
    <glyph glyph-name="agrave" unicode="&#xe0;" horiz-adv-x="672" 
d="M837 -1h-837l87 150h95q12 100 67 170q64 80 158 80h67q62 0 121 21q79 28 79 79v-350h163v-150zM526 149v50q-1 32 -1 50h-116q-30 0 -52 -37q-17 -28 -23 -63h192zM585 587l-279 151v78l279 -154v-75z" />
    <glyph glyph-name="aacute" unicode="&#xe1;" horiz-adv-x="672" 
d="M837 -1h-837l87 150h95q12 100 67 170q64 80 158 80h67q62 0 121 21q79 28 79 79v-350h163v-150zM526 149v50q-1 32 -1 50h-116q-30 0 -52 -37q-17 -28 -23 -63h192zM585 738l-279 -151v75l279 154v-78z" />
    <glyph glyph-name="acircumflex" unicode="&#xe2;" horiz-adv-x="672" 
d="M837 -1h-837l87 150h95q12 100 67 170q64 80 158 80h67q62 0 121 21q79 28 79 79v-350h163v-150zM526 149v50q-1 32 -1 50h-116q-30 0 -52 -37q-17 -28 -23 -63h192zM588 600l-139 138l-140 -138v91l140 140l139 -140v-91z" />
    <glyph glyph-name="atilde" unicode="&#xe3;" horiz-adv-x="672" 
d="M837 -1h-837l87 150h95q12 100 67 170q64 80 158 80h67q62 0 121 21q79 28 79 79v-350h163v-150zM526 149v50q-1 32 -1 50h-116q-30 0 -52 -37q-17 -28 -23 -63h192zM641 681q-109 -46 -129 -46q-11 0 -33 9q-39 15 -42 16q-47 16 -72 13q-60 -6 -105 -32v78
q73 33 118 36q22 2 68 -19.5t66 -20.5q28 2 129 41v-75z" />
    <glyph glyph-name="adieresis" unicode="&#xe4;" horiz-adv-x="672" 
d="M837 -1h-837l87 150h95q12 100 67 170q64 80 158 80h67q62 0 121 21q79 28 79 79v-350h163v-150zM526 149v50q-1 32 -1 50h-116q-30 0 -52 -37q-17 -28 -23 -63h192zM630 708q0 -31 -22 -53t-53 -22t-53 22t-22 53t22 53t53 22t53 -22t22 -53zM416 708q0 -31 -22 -53
t-53 -22q-32 0 -53.5 22t-21.5 53t21.5 53t53.5 22q31 0 53 -22t22 -53z" />
    <glyph glyph-name="aring" unicode="&#xe5;" horiz-adv-x="672" 
d="M837 -1h-837l87 150h95q12 100 67 170q64 80 158 80h67q62 0 121 21q79 28 79 79v-350h163v-150zM526 149v50q-1 32 -1 50h-116q-30 0 -52 -37q-17 -28 -23 -63h192zM558 697q0 -44 -30.5 -74.5t-74.5 -30.5q-43 0 -74 30.5t-31 74.5q0 43 31 74t74 31q44 0 74.5 -31
t30.5 -74zM495 697q0 17 -12.5 29t-29.5 12t-29 -12t-12 -29t12 -29t29 -12t29.5 12t12.5 29z" />
    <glyph glyph-name="ae" unicode="&#xe6;" horiz-adv-x="908" 
d="M1073 -1h-481q-26 0 -44.5 -18t-18.5 -44q0 -25 18.5 -43.5t44.5 -18.5h350v-75q0 -31 -22 -53t-53 -22h-275q-88 0 -150.5 62.5t-62.5 149.5q0 32 9 62h-388l87 150h125q12 100 67 170q64 80 158 80h71q62 0 121 21q79 28 79 79v-100h228v-150h-228v-51q0 -5 8 -15
q27 -34 102 -34h255v-150zM559 249h-117q-32 0 -55 -35q-17 -28 -23 -65h193z" />
    <glyph glyph-name="ccedilla" unicode="&#xe7;" horiz-adv-x="581" 
d="M498 667q0 -31 -22 -53t-53 -22t-53 22t-22 53t22 53t53 22t53 -22t22 -53zM746 -1h-306q-92 0 -167 44q-87 50 -92 136q-1 10 -1 145q0 77 113 77q13 0 35 -1t30 -1q62 0 121 21q79 28 79 79v-250h-228v-51q0 -24 47 -38q34 -11 63 -11h306v-150zM511 86l-1 -166v0
q-2 -61 -45 -104t-104 -43v312z" />
    <glyph glyph-name="egrave" unicode="&#xe8;" horiz-adv-x="626" 
d="M791 -1h-496q-26 0 -44.5 -18t-18.5 -44q0 -25 18.5 -42.5t44.5 -17.5h351v-77q0 -31 -22 -53t-53 -22h-276q-88 0 -150.5 62.5t-62.5 149.5q0 32 10 62h-92l87 150h182q-8 23 -8 40l1 135q0 31 22 53t53 22h132q54 0 105 23q65 29 65 76l1 -249h-229v-51q0 -24 47 -38
q34 -11 63 -11h270v-150zM585 587l-279 151v78l279 -154v-75z" />
    <glyph glyph-name="eacute" unicode="&#xe9;" horiz-adv-x="626" 
d="M791 -1h-496q-26 0 -44.5 -18t-18.5 -44q0 -25 18.5 -42.5t44.5 -17.5h351v-77q0 -31 -22 -53t-53 -22h-276q-88 0 -150.5 62.5t-62.5 149.5q0 32 10 62h-92l87 150h182q-8 23 -8 40l1 135q0 31 22 53t53 22h132q54 0 105 23q65 29 65 76l1 -249h-229v-51q0 -24 47 -38
q34 -11 63 -11h270v-150zM585 738l-279 -151v75l279 154v-78z" />
    <glyph glyph-name="ecircumflex" unicode="&#xea;" horiz-adv-x="626" 
d="M791 -1h-496q-26 0 -44.5 -18t-18.5 -44q0 -25 18.5 -42.5t44.5 -17.5h351v-77q0 -31 -22 -53t-53 -22h-276q-88 0 -150.5 62.5t-62.5 149.5q0 32 10 62h-92l87 150h182q-8 23 -8 40l1 135q0 31 22 53t53 22h132q54 0 105 23q65 29 65 76l1 -249h-229v-51q0 -24 47 -38
q34 -11 63 -11h270v-150zM588 600l-139 138l-140 -138v91l140 140l139 -140v-91z" />
    <glyph glyph-name="edieresis" unicode="&#xeb;" horiz-adv-x="626" 
d="M791 -1h-496q-26 0 -44.5 -18t-18.5 -44q0 -25 18.5 -42.5t44.5 -17.5h351v-77q0 -31 -22 -53t-53 -22h-276q-88 0 -150.5 62.5t-62.5 149.5q0 32 10 62h-92l87 150h182q-8 23 -8 40l1 135q0 31 22 53t53 22h132q54 0 105 23q65 29 65 76l1 -249h-229v-51q0 -24 47 -38
q34 -11 63 -11h270v-150z" />
    <glyph glyph-name="igrave" unicode="&#xec;" horiz-adv-x="505" 
d="M610 66q0 -91 -54 -153t-144 -62q-72 0 -127 40t-81 108h-204l87 150h96v325q62 0 106 -44t44 -106v-217q-2 -43 24 -75q27 -35 70 -35q63 0 93 78q21 56 21 132q69 -20 69 -141zM420 587l-279 151v78l279 -154v-75z" />
    <glyph glyph-name="iacute" unicode="&#xed;" horiz-adv-x="505" 
d="M610 66q0 -91 -54 -153t-144 -62q-72 0 -127 40t-81 108h-204l87 150h96v325q62 0 106 -44t44 -106v-217q-2 -43 24 -75q27 -35 70 -35q63 0 93 78q21 56 21 132q69 -20 69 -141zM420 738l-279 -151v75l279 154v-78z" />
    <glyph glyph-name="icircumflex" unicode="&#xee;" horiz-adv-x="505" 
d="M610 66q0 -91 -54 -153t-144 -62q-72 0 -127 40t-81 108h-204l87 150h96v325q62 0 106 -44t44 -106v-217q-2 -43 24 -75q27 -35 70 -35q63 0 93 78q21 56 21 132q69 -20 69 -141zM423 600l-139 138l-140 -138v91l140 140l139 -140v-91z" />
    <glyph glyph-name="idieresis" unicode="&#xef;" horiz-adv-x="505" 
d="M610 66q0 -91 -54 -153t-144 -62q-72 0 -127 40t-81 108h-204l87 150h96v325q62 0 106 -44t44 -106v-217q-2 -43 24 -75q27 -35 70 -35q63 0 93 78q21 56 21 132q69 -20 69 -141z" />
    <glyph glyph-name="eth" unicode="&#xf0;" horiz-adv-x="743" 
d="M908 -1h-908l87 150h107l-1 176q0 31 22.5 52.5t52.5 21.5h344q-16 43 -60 87l-127 128l-52 -52l-53 53l52 53l-138 138q44 44 106 44q63 0 106 -44v-1l32 -32l54 54l53 -53l-54 -54l128 -128q109 -108 109 -219l1 -224h138zM619 149v100h-274l-1 -100h275z" />
    <glyph glyph-name="ntilde" unicode="&#xf1;" horiz-adv-x="671" 
d="M836 149l-1 -150h-318v250h-198v-250h-319l87 150h82v217l150 86v-118q45 65 124 65h150q31 0 53 -22t22 -53v-175h168zM611 681q-109 -46 -129 -46q-11 0 -33 9q-39 15 -42 16q-47 16 -72 13q-60 -6 -105 -32v78q73 33 118 36q22 2 68 -19.5t66 -20.5q28 2 129 41v-75z
" />
    <glyph glyph-name="ograve" unicode="&#xf2;" horiz-adv-x="677" 
d="M842 149v-150h-150q-28 -74 -94 -121t-148 -47t-148 47t-94 121h-208l87 150h112q27 120 167 183q38 18 61 57.5t23 83.5q0 -43 22.5 -83t59.5 -57q143 -66 170 -184h140zM558 88q0 45 -31.5 76.5t-76.5 31.5q-44 0 -76 -31.5t-32 -76.5q0 -44 32 -75.5t76 -31.5
q45 0 76.5 31.5t31.5 75.5zM585 587l-279 151v78l279 -154v-75z" />
    <glyph glyph-name="oacute" unicode="&#xf3;" horiz-adv-x="677" 
d="M842 149v-150h-150q-28 -74 -94 -121t-148 -47t-148 47t-94 121h-208l87 150h112q27 120 167 183q38 18 61 57.5t23 83.5q0 -43 22.5 -83t59.5 -57q143 -66 170 -184h140zM558 88q0 45 -31.5 76.5t-76.5 31.5q-44 0 -76 -31.5t-32 -76.5q0 -44 32 -75.5t76 -31.5
q45 0 76.5 31.5t31.5 75.5zM585 738l-279 -151v75l279 154v-78z" />
    <glyph glyph-name="ocircumflex" unicode="&#xf4;" horiz-adv-x="677" 
d="M842 149v-150h-150q-28 -74 -94 -121t-148 -47t-148 47t-94 121h-208l87 150h112q27 120 167 183q38 18 61 57.5t23 83.5q0 -43 22.5 -83t59.5 -57q143 -66 170 -184h140zM558 88q0 45 -31.5 76.5t-76.5 31.5q-44 0 -76 -31.5t-32 -76.5q0 -44 32 -75.5t76 -31.5
q45 0 76.5 31.5t31.5 75.5zM588 600l-139 138l-140 -138v91l140 140l139 -140v-91z" />
    <glyph glyph-name="otilde" unicode="&#xf5;" horiz-adv-x="677" 
d="M842 149v-150h-150q-28 -74 -94 -121t-148 -47t-148 47t-94 121h-208l87 150h112q27 120 167 183q38 18 61 57.5t23 83.5q0 -43 22.5 -83t59.5 -57q143 -66 170 -184h140zM558 88q0 45 -31.5 76.5t-76.5 31.5q-44 0 -76 -31.5t-32 -76.5q0 -44 32 -75.5t76 -31.5
q45 0 76.5 31.5t31.5 75.5z" />
    <glyph glyph-name="odieresis" unicode="&#xf6;" horiz-adv-x="677" 
d="M842 149v-150h-150q-28 -74 -94 -121t-148 -47t-148 47t-94 121h-208l87 150h112q27 120 167 183q38 18 61 57.5t23 83.5q0 -43 22.5 -83t59.5 -57q143 -66 170 -184h140zM558 88q0 45 -31.5 76.5t-76.5 31.5q-44 0 -76 -31.5t-32 -76.5q0 -44 32 -75.5t76 -31.5
q45 0 76.5 31.5t31.5 75.5z" />
    <glyph glyph-name="oslash" unicode="&#xf8;" horiz-adv-x="677" 
d="M842 149v-150h-150q-28 -74 -94 -121t-148 -47t-148 47t-94 121h-208l87 150h112q27 120 167 183q38 18 61 57.5t23 83.5q0 -43 22.5 -83t59.5 -57q143 -66 170 -184h140zM479 192q-14 4 -29 4q-44 0 -76 -31.5t-32 -76.5q0 -14 4 -28zM558 88q0 12 -2 22l-128 -127
q11 -2 22 -2q44 0 76 31.5t32 75.5z" />
    <glyph glyph-name="ugrave" unicode="&#xf9;" horiz-adv-x="682" 
d="M846 149l-1 -150l-522 1q-62 0 -105.5 44t-44.5 106v99q-1 62 43 106t107 44v-249h193v102q0 61 44.5 104t105.5 43q0 -146 1 -250h179zM585 587l-279 151v78l279 -154v-75z" />
    <glyph glyph-name="uacute" unicode="&#xfa;" horiz-adv-x="682" 
d="M846 149l-1 -150l-522 1q-62 0 -105.5 44t-44.5 106v99q-1 62 43 106t107 44v-249h193v102q0 61 44.5 104t105.5 43q0 -146 1 -250h179zM570 738l-279 -151v75l279 154v-78z" />
    <glyph glyph-name="ucircumflex" unicode="&#xfb;" horiz-adv-x="682" 
d="M846 149l-1 -150l-522 1q-62 0 -105.5 44t-44.5 106v99q-1 62 43 106t107 44v-249h193v102q0 61 44.5 104t105.5 43q0 -146 1 -250h179zM573 600l-139 138l-140 -138v91l140 140l139 -140v-91z" />
    <glyph glyph-name="udieresis" unicode="&#xfc;" horiz-adv-x="682" 
d="M846 149l-1 -150l-522 1q-62 0 -105.5 44t-44.5 106v99q-1 62 43 106t107 44v-249h193v102q0 61 44.5 104t105.5 43q0 -146 1 -250h179zM630 708q0 -31 -22 -53t-53 -22t-53 22t-22 53t22 53t53 22t53 -22t22 -53zM416 708q0 -31 -22 -53t-53 -22q-32 0 -53.5 22
t-21.5 53t21.5 53t53.5 22q31 0 53 -22t22 -53z" />
    <glyph glyph-name="yacute" unicode="&#xfd;" horiz-adv-x="693" 
d="M693 399q0 6 2 -235q1 -145 -2 -232t-64 -149t-149 -62t-150 62t-62 150h150q0 -26 18 -44t44 -18t44.5 18t18.5 44v67h-543l87 149h114q-1 104 0 104q1 61 45 103.5t105 42.5v-250h192v103q1 61 45 104t105 43zM585 738l-279 -151v75l279 154v-78z" />
    <glyph glyph-name="thorn" unicode="&#xfe;" horiz-adv-x="659" 
d="M804 149l-1 -150h-803l87 150h111l1 559h150v-259h216q52 0 89 -38.5t37 -90.5t-37 -90t-89 -38h-217v-43h456zM598 320q0 13 -10 24t-23 11h-216v-69h216q13 0 23 10t10 24z" />
    <glyph glyph-name="ydieresis" unicode="&#xff;" horiz-adv-x="693" 
d="M693 399q0 6 2 -235q1 -145 -2 -232t-64 -149t-149 -62t-150 62t-62 150h150q0 -26 18 -44t44 -18t44.5 18t18.5 44v67h-543l87 149h114q-1 104 0 104q1 61 45 103.5t105 42.5v-250h192v103q1 61 45 104t105 43z" />
    <glyph glyph-name="dotlessi" unicode="&#x131;" horiz-adv-x="505" 
d="M610 66q0 -91 -54 -153t-144 -62q-72 0 -127 40t-81 108h-204l87 150h96v325q62 0 106 -44t44 -106v-217q-2 -43 24 -75q27 -35 70 -35q63 0 93 78q21 56 21 132q69 -20 69 -141z" />
    <glyph glyph-name="Lslash" unicode="&#x141;" horiz-adv-x="386" 
d="M467 527l-82 -82v-371q0 -28 -19 -49.5t-47 -24.5v-1h-319l87 150h148v146l-33 -33l-53 53l86 86l1 303q0 62 44 106t106 44v-303l28 29z" />
    <glyph glyph-name="lslash" unicode="&#x142;" horiz-adv-x="388" 
d="M552 -1h-552l87 150h146l1 143l-30 -30l-53 53l83 83v306q0 62 45.5 106t107.5 44l1 -302l28 28l53 -53l-81 -81v-297h164v-150z" />
    <glyph glyph-name="OE" unicode="&#x152;" horiz-adv-x="906" 
d="M1071 -1h-481q-25 0 -43.5 -18t-18.5 -44q0 -25 18.5 -43.5t43.5 -18.5h351v-75q0 -31 -22 -53t-53 -22h-276q-81 0 -142 55t-69 136q-77 22 -128 83h-251l87 150h106l-1 14q-2 83 47 149q47 63 127 95q39 16 62 58q22 39 22 83q0 -42 22 -82q24 -43 60 -58q18 -7 53 -25
q20 16 47 16h303v-150h-228v-51q0 -5 8 -15q26 -34 106 -34h250v-150zM558 163q0 45 -31.5 76.5t-76.5 31.5q-44 0 -76 -31.5t-32 -76.5q0 -44 32 -75.5t76 -31.5q45 0 76.5 31.5t31.5 75.5z" />
    <glyph glyph-name="oe" unicode="&#x153;" horiz-adv-x="906" 
d="M1071 -1h-481q-25 0 -43.5 -18t-18.5 -44q0 -25 18.5 -43.5t43.5 -18.5h351v-75q0 -31 -22 -53t-53 -22h-276q-81 0 -142 55t-69 136q-77 22 -128 83h-251l87 150h106l-1 14q-2 83 47 149q47 63 127 95q39 16 62 58q22 39 22 83q0 -42 22 -82q24 -43 60 -58q18 -7 53 -25
q20 16 47 16h303v-150h-228v-51q0 -5 8 -15q26 -34 106 -34h250v-150zM558 163q0 45 -31.5 76.5t-76.5 31.5q-44 0 -76 -31.5t-32 -76.5q0 -44 32 -75.5t76 -31.5q45 0 76.5 31.5t31.5 75.5z" />
    <glyph glyph-name="Scaron" unicode="&#x160;" horiz-adv-x="770" 
d="M860 638l-348 -193q-18 -11 -18 -27q0 -19 21 -19h68q73 0 117 -44t44 -117v-239h-744l87 150h509v101h-401v107l665 325v-44zM558 740l-139 -140v93l139 138v-91zM419 600l-140 140v91l140 -138v-93z" />
    <glyph glyph-name="scaron" unicode="&#x161;" horiz-adv-x="770" 
d="M860 638l-348 -193q-18 -11 -18 -27q0 -19 21 -19h68q73 0 117 -44t44 -117v-239h-744l87 150h509v101h-401v107l665 325v-44zM558 740l-139 -140v93l139 138v-91zM419 600l-140 140v91l140 -138v-93z" />
    <glyph glyph-name="Ydieresis" unicode="&#x178;" horiz-adv-x="693" 
d="M693 399q0 6 2 -235q1 -145 -2 -232t-64 -149t-149 -62t-150 62t-62 150h150q0 -26 18 -44t44 -18t44.5 18t18.5 44v67h-543l87 149h114q-1 104 0 104q1 61 45 103.5t105 42.5v-250h192v103q1 61 45 104t105 43z" />
    <glyph glyph-name="Zcaron" unicode="&#x17d;" horiz-adv-x="714" 
d="M879 149l-86 -149l-482 -1q-73 0 -110 33t-37 88q0 94 74 123l250 95q24 9 23 25q0 11 -19 22l-446 253v44l661 -325l1 -99l-299 -109h470zM618 740l-139 -140v93l139 138v-91zM479 600l-140 140v91l140 -138v-93z" />
    <glyph glyph-name="zcaron" unicode="&#x17e;" horiz-adv-x="714" 
d="M879 149l-86 -149l-482 -1q-73 0 -110 33t-37 88q0 94 74 123l250 95q24 9 23 25q0 11 -19 22l-446 253v44l661 -325l1 -99l-299 -109h470zM618 740l-139 -140v93l139 138v-91zM479 600l-140 140v91l140 -138v-93z" />
    <glyph glyph-name="circumflex" unicode="&#x2c6;" horiz-adv-x="672" 
d="M588 600l-139 138l-140 -138v91l140 140l139 -140v-91z" />
    <glyph glyph-name="caron" unicode="&#x2c7;" horiz-adv-x="672" 
d="M588 740l-139 -140v93l139 138v-91zM449 600l-140 140v91l140 -138v-93z" />
    <glyph glyph-name="ring" unicode="&#x2da;" horiz-adv-x="672" 
d="M558 697q0 -44 -30.5 -74.5t-74.5 -30.5q-43 0 -74 30.5t-31 74.5q0 43 31 74t74 31q44 0 74.5 -31t30.5 -74zM495 697q0 17 -12.5 29t-29.5 12t-29 -12t-12 -29t12 -29t29 -12t29.5 12t12.5 29z" />
    <glyph glyph-name="tilde" unicode="&#x2dc;" horiz-adv-x="672" 
d="M641 681q-109 -46 -129 -46q-11 0 -33 9q-39 15 -42 16q-47 16 -72 13q-60 -6 -105 -32v78q73 33 118 36q22 2 68 -19.5t66 -20.5q28 2 129 41v-75z" />
    <glyph glyph-name="endash" unicode="&#x2013;" 
d="M549 349h-498v127h498v-127z" />
    <glyph glyph-name="emdash" unicode="&#x2014;" horiz-adv-x="900" 
d="M849 349h-798v127h798v-127z" />
    <glyph glyph-name="quoteleft" unicode="&#x2018;" horiz-adv-x="392" 
d="M392 842q0 -44 -28 -75t-72 -31q-50 0 -81 38q-29 35 -29 86q0 82 65 141q56 50 143 74v-93q-58 -17 -82 -44q84 -13 84 -96z" />
    <glyph glyph-name="quoteright" unicode="&#x2019;" horiz-adv-x="475" 
d="M392 952q0 -82 -65 -142q-55 -50 -142 -73v93q57 16 82 43q-85 14 -85 96q0 44 28 75t72 31q50 0 80 -36t30 -87z" />
    <glyph glyph-name="quotesinglbase" unicode="&#x201a;" horiz-adv-x="360" 
d="M371 75q0 -82 -66 -142q-55 -50 -142 -74v94q58 16 82 43q-85 13 -85 96q0 44 28.5 75t71.5 31q50 0 80.5 -36.5t30.5 -86.5z" />
    <glyph glyph-name="quotedblleft" unicode="&#x201c;" horiz-adv-x="710" 
d="M710 842q0 -44 -28 -75t-72 -31q-50 0 -81 38q-29 35 -29 86q0 82 65 141q56 50 143 74v-93q-58 -17 -82 -44q84 -13 84 -96zM392 842q0 -44 -28 -75t-72 -31q-50 0 -81 38q-29 35 -29 86q0 82 65 141q56 50 143 74v-93q-58 -17 -82 -44q84 -13 84 -96z" />
    <glyph glyph-name="quotedblright" unicode="&#x201d;" horiz-adv-x="792" 
d="M710 952q0 -82 -66 -142q-55 -50 -142 -73v93q58 16 82 43q-84 14 -84 96q0 44 28 75t72 31q49 0 81 -37q29 -35 29 -86zM392 952q0 -82 -66 -142q-55 -50 -142 -73v93q58 16 82 43q-84 14 -84 96q0 44 28 75t72 31q49 0 81 -37q29 -35 29 -86z" />
    <glyph glyph-name="quotedblbase" unicode="&#x201e;" horiz-adv-x="909" 
d="M710 74q0 -82 -65 -141q-55 -50 -142 -74v93q57 17 82 44q-85 13 -85 96q0 44 28 74.5t72 30.5q50 0 80 -36t30 -87zM392 74q0 -82 -65 -141q-55 -50 -142 -74v93q57 17 82 44q-85 13 -85 96q0 44 28 74.5t72 30.5q50 0 80 -36t30 -87z" />
    <glyph glyph-name="dagger" unicode="&#x2020;" horiz-adv-x="157" 
d="M150 -1h-150v852h150v-852z" />
    <glyph glyph-name="bullet" unicode="&#x2022;" horiz-adv-x="241" 
d="M237 473h-225v75h225v-75zM87 473v0v0zM87 323h-75v225h75v-225zM237 473h-150v-150q62 0 106 44t44 106z" />
    <glyph glyph-name="guilsinglleft" unicode="&#x2039;" horiz-adv-x="428" 
d="M375 16h-118l-182 182l182 182h118l-180 -182z" />
    <glyph glyph-name="guilsinglright" unicode="&#x203a;" horiz-adv-x="330" 
d="M495 198l-182 -182h-118l180 182l-180 182h118z" />
    <glyph glyph-name="partialdiff" unicode="&#x2202;" horiz-adv-x="743" 
d="M769 75q0 -31 -22 -53.5t-53 -22.5h-694l87 150h107l-1 176q0 31 22.5 52.5t52.5 21.5h344q-16 43 -60 87l-318 320q44 44 106 44q63 0 106 -44v-1l213 -213q109 -108 109 -219zM619 149v100h-274l-1 -100h275z" />
  </font>
</defs>
</svg>
